<?xml version="1.0" standalone="no"?>
<!DOCTYPE svg PUBLIC "-//W3C//DTD SVG 1.1//EN" "http://www.w3.org/Graphics/SVG/1.1/DTD/svg11.dtd" >
<svg xmlns="http://www.w3.org/2000/svg" xmlns:xlink="http://www.w3.org/1999/xlink" version="1.1">
<metadata></metadata>
<defs>
<font id="la_portenia_de_la_bocaregular" horiz-adv-x="831" >
<font-face units-per-em="2048" ascent="1638" descent="-410" />
<missing-glyph horiz-adv-x="471" />
<glyph horiz-adv-x="0" />
<glyph unicode="&#xd;" horiz-adv-x="471" />
<glyph unicode=" "  horiz-adv-x="471" />
<glyph unicode="&#x09;" horiz-adv-x="471" />
<glyph unicode="&#xa0;" horiz-adv-x="471" />
<glyph unicode="!" horiz-adv-x="569" d="M29 -35q0 25 13 49.5t33.5 44t42 30.5t40.5 11q14 0 26.5 -7t12.5 -32q0 -35 -14.5 -61.5t-34 -44.5t-41 -27.5t-35.5 -9.5q-27 0 -35 18.5t-8 28.5zM223 295q12 16 34 52t49.5 85t59 106.5t62.5 114.5q74 135 160 297q29 49 58.5 77t56 41t47 15t28.5 2q23 0 29 -8 t6 -16t-39 -69.5t-104.5 -162t-150.5 -231.5t-175 -281q-10 -18 -27.5 -27t-33.5 -14q-18 -6 -37 -6q-16 0 -19.5 7.5t-3.5 17.5z" />
<glyph unicode="&#x22;" horiz-adv-x="759" d="M252 854q0 2 1 3t1 3v4q47 70 84 135q33 55 64.5 116t43.5 99q2 2 5 7q4 6 10 6q-2 0 3 0t14 -8.5t16.5 -27.5t7.5 -58q0 -16 -4 -33t-17 -37q-35 -53 -70.5 -93t-64.5 -69q-35 -33 -67 -53q-8 -4 -17 -4q-10 0 -10 10zM463 854q0 2 1 3t1 3v4q47 70 84 135 q33 55 64.5 116t43.5 99q2 2 5 7q4 6 10 6q-2 0 3 0t14 -8.5t16.5 -27.5t7.5 -58q0 -16 -4 -33t-17 -37q-35 -53 -70.5 -93t-64.5 -69q-35 -33 -68 -53q-8 -4 -16 -4q-10 0 -10 10z" />
<glyph unicode="#" horiz-adv-x="1024" d="M96 453q0 2 1 3t1 3v2q6 16 17 28q10 10 25.5 18.5t37.5 8.5q25 2 49 2h95q29 45 55 91t37 67q-37 0 -72 -1t-63 -3q-33 -2 -64 -2q-27 0 -27 12q0 4 5.5 14.5t16.5 21.5t26.5 19t33.5 8h183q23 37 42 71t35 61q18 31 33 55q12 16 35 25.5t45 9.5q20 0 21 -13 q0 -2 -2 -10q-2 -6 -5.5 -15t-13.5 -24q-16 -23 -42 -65.5t-54 -91.5h192q23 37 41.5 69.5t34.5 59.5q18 31 33 55q10 16 32.5 25.5t47.5 9.5q23 0 22 -13q0 -2 -2 -10q-4 -12 -20 -39q-14 -23 -40 -64.5t-54 -90.5q53 0 94 1t51 1q4 0 12 -2.5t8 -10.5q0 -4 -6 -14 q-16 -29 -28.5 -36t-20.5 -9q-20 -4 -60 -6t-93 0q-27 -45 -53.5 -88t-43.5 -70q68 0 121 1t72 5q4 0 12 -2t8 -10q0 -18 -22.5 -37.5t-44.5 -21.5q-16 -2 -66.5 -4.5t-116.5 -2.5q-14 -29 -34.5 -60.5t-36.5 -59.5q-20 -33 -41 -66q-16 -18 -39 -22.5t-47 -4.5q-12 0 -13 7 q0 6 3 8q2 2 2 4q6 8 19 28.5t29.5 47t35 57.5t34.5 61q-47 2 -93 2h-101q-16 -27 -34.5 -59.5t-37.5 -60.5q-23 -35 -43 -68q-16 -18 -36.5 -22.5t-35.5 -4.5h-14q-12 0 -12 7q0 6 2 8t2 4q6 8 18.5 28.5t28.5 48t34.5 58.5t37.5 59l-172 -4q-16 0 -17 13zM410 516h196 q10 18 23.5 41t28 46.5t25.5 43t15 27.5q-59 0 -112.5 1t-77.5 1z" />
<glyph unicode="$" horiz-adv-x="1185" d="M-76 125q0 61 31 117.5t81 101.5t113.5 76t126.5 37q8 0 22.5 -2t14.5 -13q0 -6 -6 -14t-35 -22q-12 -4 -48 -28t-73.5 -59.5t-67.5 -82t-30 -97.5t25.5 -82.5t58.5 -48.5q37 -20 84 -28q8 -2 14.5 -3.5t14.5 -1.5l385 668q-25 12 -64 31.5t-76.5 48.5t-64.5 66.5 t-27 87.5q0 45 20.5 80.5t43.5 64.5q27 33 61 57q-49 49 -60 95.5t-11 72.5q8 53 24.5 76t44.5 23q14 0 19.5 -4.5t5.5 -22.5q0 -12 -3 -28.5t-3 -35.5q0 -20 9 -55t42 -72q98 59 201.5 81t181.5 24q33 53 51.5 87t32.5 56q14 18 27.5 26.5t35.5 10.5q10 0 21.5 -2t11.5 -14 q-10 -23 -20.5 -40.5t-22.5 -35.5q-10 -14 -26.5 -39t-30.5 -49q78 0 130 -34t52 -81q0 -55 -37 -89t-89 -52.5t-108.5 -25.5t-95.5 -7h-20q-31 -53 -64.5 -112.5t-68.5 -120.5l30 -13q74 -29 132 -67q49 -35 89 -86t40 -123q0 -78 -55.5 -172t-156 -176t-240.5 -136.5 t-310 -54.5q-29 -47 -51.5 -84t-38.5 -59q-20 -29 -36 -41t-52 -12q-14 0 -15 12q0 6 2 12q16 27 44 73t63 107q-47 8 -91 22.5t-85 41.5q-29 16 -52 41q-20 23 -35.5 54.5t-15.5 74.5zM336 -33q145 0 255.5 44t185.5 109.5t113 141.5t38 137q0 47 -22.5 81t-56.5 58.5 t-73 42t-74 31.5q-98 -174 -194 -344t-172 -301zM522 899q0 -29 25.5 -57.5t58.5 -50.5q37 -25 84 -50l123 213q-72 12 -125 32t-92 42q-33 -27 -53.5 -59.5t-20.5 -69.5zM664 1073q33 -18 77.5 -32.5t108.5 -24.5q25 45 47.5 82.5t40.5 68.5q-43 -4 -88 -14 q-39 -10 -87 -27.5t-99 -52.5zM928 1010l54 6t69.5 15t59.5 30.5t26 50.5q0 20 -17.5 30.5t-40.5 16.5q-25 8 -57 10q-23 -35 -45.5 -74.5t-48.5 -84.5z" />
<glyph unicode="%" horiz-adv-x="1329" d="M14 -96q0 4 4 12q31 31 93.5 95.5t147.5 151.5t184.5 190.5t202 209t201.5 208.5t183 189.5t147.5 152t94.5 93.5q37 35 62.5 62.5t47 47t44 31t51.5 15.5h6q8 0 20.5 -1t12.5 -11q0 -8 -9 -17l-59 -59q-35 -35 -101.5 -103.5t-153.5 -158.5t-188.5 -196.5t-207 -215 t-207 -214t-189.5 -195t-155.5 -156t-102.5 -98.5q-18 -12 -54 -25.5t-64 -13.5h-9zM221 729q0 82 33 147.5t82 110.5t103.5 68.5t97.5 23.5q12 0 22 -2t10 -10q0 -2 -4 -10q-2 -4 -10 -8q-4 -2 -8 -2q-25 -4 -60.5 -19.5t-71.5 -49.5t-64.5 -88t-37.5 -136q0 -8 1 -25.5 t10.5 -36t28 -32t50.5 -13.5q61 0 116.5 41t97.5 101.5t67 129t25 125.5q0 51 -21.5 84t-73.5 33q-45 0 -69.5 -14t-59.5 -43q-8 -8 -16 -8t-8 8q0 4 2 8q4 12 17.5 30.5t38 37t58 32t76.5 13.5q76 0 109 -44t33 -110q0 -72 -34 -158t-92.5 -160.5t-135 -124.5t-162.5 -50 t-118 43t-32 108zM647 96q0 82 33 147.5t82 110.5t103.5 68.5t97.5 23.5q12 0 22 -2t10 -10q0 -2 -4 -10q-2 -4 -10 -8q-4 -2 -8 -2q-25 -4 -60.5 -19.5t-71.5 -49.5t-64.5 -88t-37.5 -136q0 -8 1 -25.5t10.5 -36t28 -32t50.5 -13.5q61 0 116.5 41t97.5 101.5t67 129 t25 126.5q0 51 -21.5 83.5t-73.5 32.5q-45 0 -69.5 -14t-59.5 -43q-8 -8 -16 -8t-8 8q0 4 2 8q4 12 17.5 30.5t38 37t58 32t76.5 13.5q76 0 109 -44t33 -110q0 -72 -34 -157.5t-92.5 -160.5t-135 -125t-162.5 -50t-118 43t-32 108z" />
<glyph unicode="&#x26;" horiz-adv-x="864" d="M-119 164q0 117 64.5 211t154.5 168.5t185.5 132t156.5 102.5q-2 27 -2 38v22q0 59 27 131.5t73 136t108.5 106.5t133.5 43q35 0 52.5 -11t25.5 -27q8 -18 10 -41q0 -78 -75.5 -176.5t-253.5 -233.5q4 -49 13 -92t21 -80q39 35 77 55.5t71 30.5t56.5 12t33.5 2 q43 0 71.5 -14t44 -36.5t21.5 -50t6 -54.5q0 -88 -41 -173t-100 -159t-129 -131.5t-129 -85.5q43 -74 97.5 -127t148.5 -94l12 -5q10 -4 10 -14q-2 -10 -10 -13t-12 -3q-74 4 -125 28.5t-89 57.5t-64.5 67.5t-49.5 63.5q-37 -16 -80 -31q-37 -12 -88 -21.5t-110 -9.5 q-113 0 -176.5 34t-94 80t-38 92t-7.5 69zM12 162q0 -12 5.5 -45t28 -67t68.5 -59.5t128 -25.5q49 0 87 5t64 14q31 8 53 20q-23 51 -31.5 99.5t-8.5 93.5q0 76 17 136t40 105q24 53 55 92q-23 35 -40 78t-27 94q-23 -18 -64 -44.5t-90 -61.5t-99.5 -79t-91 -98 t-67.5 -118.5t-27 -138.5zM500 223q0 -41 7 -85t23 -91q51 29 108.5 74t106 103.5t80 130t31.5 153.5q0 37 -13.5 66.5t-51.5 37.5q-35 0 -85.5 -13t-101.5 -71q16 -29 30.5 -50t27.5 -38q14 -18 26 -30q16 -18 17 -31q0 -14 -15 -14q-29 0 -63.5 29.5t-65.5 72.5 q-16 -23 -31 -59q-12 -31 -21 -76t-9 -109zM543 852q49 33 89 71t68.5 74.5t44 68t15.5 54.5q0 35 -37 35q-49 0 -83 -38t-55.5 -89t-31.5 -101t-10 -75z" />
<glyph unicode="'" horiz-adv-x="548" d="M252 854q0 2 1 3t1 3v4q47 70 84 135q33 55 64.5 116t43.5 99q2 2 5 7q4 6 10 6q-2 0 3 0t14 -8.5t16.5 -27.5t7.5 -58q0 -16 -4 -33t-17 -37q-35 -53 -70.5 -93t-64.5 -69q-35 -33 -67 -53q-8 -4 -17 -4q-10 0 -10 10z" />
<glyph unicode="(" horiz-adv-x="608" d="M-23 0q0 129 34 250t75 217q49 113 109 211q123 205 251.5 328.5t239.5 193.5q127 82 248 117q10 0 18 -2q19 -5 19 -15t-31 -30q-102 -47 -215 -137q-96 -78 -212 -210t-232 -339q-59 -104 -109 -226q-41 -104 -76 -236t-35 -278q0 -20 1 -39.5t4 -40.5q-2 -6 -7 -14 q-6 -14 -18 -14q-10 0 -21.5 25.5t-20.5 63.5t-15.5 85t-6.5 90z" />
<glyph unicode=")" horiz-adv-x="628" d="M-324 -248q0 10 31 31q102 47 215 137q96 78 212 210t233 339q61 104 110 225q41 104 75 237.5t34 276.5q0 20 -1 40t-3 40q2 6 6 15q8 14 18 14t21.5 -25.5t20.5 -63.5t15.5 -85t6.5 -90q0 -129 -34 -250t-75 -217q-49 -113 -108 -211q-121 -203 -252 -328t-240 -194 q-127 -82 -248 -117q-10 0 -18 2q-18 4 -19 14z" />
<glyph unicode="*" horiz-adv-x="700" d="M197 909q0 10 12 37t53 39q25 6 53 12q25 4 59 8.5t75 4.5q4 0 6 2q4 4 4 8q0 6 -12.5 26.5t-29 46t-32.5 49t-27 34.5q0 2 -2 4q-4 4 -4 8q0 12 13.5 31.5t40.5 19.5q12 0 26 -7t29 -30q14 -20 24 -43q10 -18 20.5 -40.5t16.5 -43.5q0 -2 2 -6q4 -6 8 -6q6 0 9 8 q0 -4 12 17.5t30.5 49t40 51t42.5 23.5q8 0 17 -2t19 -10l5 -4q2 -2 2 -12q0 -6 -2 -13.5t-13 -17.5q-14 -18 -26 -35q-10 -14 -22.5 -29.5t-22.5 -29.5q0 -2 -2 -4t-3 -6q0 -8 17 -9q14 2 29 2h59q27 0 49.5 -1t26.5 -5q4 -2 6 -4q4 -4 4 -10q0 -12 -24.5 -31.5 t-65.5 -19.5q-31 0 -55 -2q-23 -2 -40.5 -5t-21.5 -10v-2q0 -2 -1 -3t-1 -5q0 -6 3 -16t13 -27q14 -16 23 -35q8 -16 14 -32.5t6 -32.5q0 -10 -10 -33t-31 -23q-4 0 -15 7.5t-23 35.5q-10 25 -19 48q-8 20 -16 40.5t-19 30.5q0 2 -2 4t-8 2t-18 -14q-23 -35 -45 -72 q-20 -33 -42 -70.5t-38 -72.5q0 -2 -4 -6q-8 -8 -19 -8q-6 0 -28.5 11t-22.5 44q0 10 6 23q18 29 39 59q16 27 40 55.5t46 52.5q0 2 2 5q2 2 2 6q0 6 -14 6q-61 -8 -95 -14.5t-52.5 -11.5t-29 -8t-24.5 -3q-8 0 -15 2t-7 12z" />
<glyph unicode="+" horiz-adv-x="778" d="M129 553q0 4 5 14.5t16.5 20.5t27 19t35.5 11q10 2 27 3h75h53.5t61.5 -3q25 41 47.5 80t40.5 68q23 35 39 63q10 16 33.5 25.5t48.5 9.5q20 0 20 -10q0 -2 -2 -10q-4 -12 -20 -39q-16 -29 -47 -78t-66 -109h51q59 0 95.5 1.5t56.5 3.5q23 2 35 4q10 -1 10 -9t-4 -14 q-27 -47 -68 -54t-110 -7q-37 0 -67.5 1t-39.5 1q-49 -86 -79.5 -136.5t-47.5 -76.5q-20 -31 -30 -41q-16 -18 -39 -22.5t-47 -4.5q-12 0 -13 6q0 6 2 9q2 2 2 4q12 16 35 53t45 74q27 43 56 94l24 41q-43 0 -85 -1t-75.5 -2t-56 -2t-27.5 -1q-12 0 -15 5t-3 9z" />
<glyph unicode="," horiz-adv-x="520" d="M-70 -203q0 8 15 23q33 33 65 71q29 35 59.5 79t57.5 98q2 6 6 14q6 10 23 24q25 14 47 27q20 10 40.5 18.5t37.5 8.5q20 -1 22 -15q0 -16 -33.5 -70.5t-85 -115.5t-113 -112.5t-120.5 -61.5q-4 0 -10 2q-10 4 -11 10z" />
<glyph unicode="-" horiz-adv-x="733" d="M137 297q0 2 1 3t1 3v2q0 2 6.5 11.5t18.5 20.5t31.5 20.5t46.5 9.5h270q41 0 63.5 1t38.5 5q2 2 4 2h9q10 0 10 -8q0 -4 -6 -15q-27 -45 -77 -55t-122 -10q-18 0 -34.5 1t-28.5 1h-29q-70 2 -104.5 1t-50 -2t-18.5 -3t-11 -2q-18 0 -19 14z" />
<glyph unicode="." horiz-adv-x="606" d="M129 -4q0 25 11.5 48.5t28.5 42.5t38.5 30.5t40.5 11.5q20 0 31.5 -13t11.5 -36q0 -27 -12.5 -50.5t-31 -42t-39 -28.5t-38.5 -10q-20 0 -30.5 13t-10.5 34z" />
<glyph unicode="/" horiz-adv-x="1167" d="M-172 -119q8 8 70.5 69.5t159 157t216 213t242.5 240.5q291 287 651 645q6 4 31 19.5t84 15.5q21 0 21 -10q0 -8 -99.5 -105.5t-277.5 -272.5t-426 -419t-543 -545q-20 -20 -57 -26t-54 -6q-12 2 -15 9t-3 15z" />
<glyph unicode="0" horiz-adv-x="978" d="M-102 168q0 121 51 258t137 253t198.5 192.5t235.5 76.5q94 0 94 -33q0 -10 -26 -10q-119 0 -220.5 -70.5t-177 -176t-118.5 -229.5t-43 -230q0 -55 12 -101.5t38.5 -81t66.5 -54t98 -19.5q94 0 183 46t168 122.5t144.5 175t112.5 205t73.5 213t26.5 196.5 q0 117 -48 191.5t-159 74.5q-47 0 -91 -14t-83 -35.5t-72.5 -48.5t-58.5 -51q-4 -4 -10 -8q-4 -4 -9 -7.5t-9 -3.5q-10 0 -11 19q0 8 2 12q6 20 36 60t81 79t120 68t155 29q150 0 215 -87.5t65 -222.5q0 -104 -33.5 -226t-94 -243.5t-143.5 -235.5t-180.5 -202t-206 -140 t-218.5 -52q-80 0 -137.5 23.5t-94.5 65.5t-53 99t-16 123z" />
<glyph unicode="1" horiz-adv-x="714" d="M76 -41q0 20 12 56t33.5 80t48.5 94.5t53 99.5q66 115 146 250q96 150 159.5 253t102.5 169q45 78 71 124l5 15q0 6 -7 6h-6q-2 0 -4 -2q-119 -41 -205 -92t-143 -99q-68 -53 -111 -110q-14 -23 -26 -23q-4 0 -7 3l-8 8q-4 4 -6 8v4q0 4 -1 7t-1 7q0 23 17.5 62t83.5 90 q51 41 137 86t179 84t179 64.5t140 25.5q8 0 17 -3.5t9 -13.5q0 -18 -21.5 -36.5t-72.5 -53.5q-4 -2 -8 -6t-7.5 -8t-7.5 -10q-20 -37 -49 -88q-25 -43 -61.5 -103.5t-85.5 -136.5q-123 -193 -221 -364q-43 -74 -83 -149t-73 -142.5t-53.5 -122.5t-24.5 -90q0 -6 -4 -13 q-8 -12 -16 -12q-29 0 -45.5 12.5t-24.5 28.5q-8 18 -10 41z" />
<glyph unicode="2" horiz-adv-x="933" d="M-281 25q0 29 24 52t63.5 40.5t91 28t106.5 10.5q37 0 96.5 -6.5t145.5 -26.5q139 98 257 219t204 242t135 230.5t49 182.5q0 49 -20.5 78t-46 43.5t-51 17.5t-38.5 3q-123 0 -206 -49.5t-134 -116t-73.5 -131t-22.5 -94.5q0 -53 30.5 -68.5t59.5 -15.5q70 0 117 34.5 t76.5 83.5t43 104.5t13.5 96.5q0 6 3 13.5t13 7.5q6 0 16.5 -4.5t20.5 -14.5t18.5 -27.5t8.5 -46.5q0 -27 -23.5 -80t-69.5 -105t-114 -91t-154 -39q-82 0 -121.5 48t-39.5 120q0 68 34.5 144.5t104.5 143t172 109.5t237 43q10 0 50.5 -4t83.5 -25.5t77.5 -67.5t34.5 -128 q0 -94 -42 -192.5t-106.5 -190.5t-142 -175t-149.5 -148.5t-129 -111.5t-80 -63q27 -4 90.5 -24.5t183.5 -20.5q70 0 137.5 17.5t114.5 66.5q2 0 4 2t11 2q10 0 10 -14q0 -29 -19.5 -60.5t-53.5 -59t-81 -45t-102 -17.5q-61 0 -107.5 11t-86.5 27.5t-79.5 35t-93.5 32.5 q-76 -47 -171 -83t-195 -36q-51 2 -92 13q-35 10 -64 27.5t-29 52.5zM-162 25q0 -20 28 -26.5t46 -6.5q35 0 75 10t74 23q39 14 80 30q8 4 16.5 9.5t16.5 11.5q-45 10 -83 13t-68 3q-98 0 -141.5 -19.5t-43.5 -47.5z" />
<glyph unicode="3" horiz-adv-x="935" d="M-25 152q0 96 45.5 158.5t102.5 98t110.5 50t71.5 14.5q20 0 27 -2q6 -2 6 -4q6 -6 6 -12q0 -8 -12 -17q-6 -4 -13 -6q-78 -29 -123.5 -76t-68.5 -94q-27 -53 -37 -112q4 -68 33 -105t67.5 -53.5t81.5 -19.5t74 -3q55 0 126 30t133.5 85t105.5 132t43 169q0 82 -36 129 t-83 69.5t-95 28.5t-71 6q-35 0 -42 2.5t-7 10.5q0 29 11 42t26 21q16 8 37 11q123 4 210 37.5t142 78.5t79.5 95.5t24.5 89.5q0 47 -24.5 72.5t-55.5 39.5q-37 16 -82 19q-6 -37 -30.5 -90.5t-68.5 -100.5t-106.5 -81t-140.5 -34q-10 0 -30.5 3.5t-41 12.5t-36 26.5 t-15.5 46.5q0 31 23 75.5t70 86.5t120.5 76t176.5 42q-6 23 -16.5 40t-20.5 28q-12 12 -25 22l-2 2q-4 4 -4 11q0 14 21 16q31 -2 57 -16q23 -12 44 -36t25 -65q119 0 196 -52t77 -138q0 -41 -19.5 -92.5t-65.5 -99.5t-120 -89t-182 -63q-2 -2 -6 -4q-6 -2 -6 -9q0 -6 8 -8 q57 -18 102 -53q39 -29 70.5 -79t31.5 -128q0 -125 -57 -217t-143 -151.5t-186.5 -88t-186.5 -28.5q-96 0 -158.5 25.5t-99.5 64.5t-52.5 82t-15.5 78zM432 938q0 -29 20.5 -34t39.5 -5q31 0 69.5 24.5t72.5 60.5t56.5 78t22.5 77q-57 0 -107.5 -20.5t-89.5 -51.5 t-61.5 -65.5t-22.5 -63.5z" />
<glyph unicode="4" horiz-adv-x="978" d="M14 379q0 16 6 29l7 12q184 223 353 375.5t304 251.5q158 113 295 186q23 12 47 20q23 8 48.5 13.5t49.5 5.5q20 -2 35 -6q12 -4 22.5 -9.5t10.5 -15.5q0 -8 -9 -17.5t-40 -19.5q-115 -51 -258 -145q-123 -80 -287 -210t-358 -329q-23 -23 -41 -45q-16 -18 -29.5 -37.5 t-13.5 -31.5q0 -10 14 -13q23 -2 47 -4q23 -2 52.5 -3t66.5 -1q43 0 92 2t102 10q63 121 140 215q33 41 70.5 79t80.5 67.5t89 48t96 18.5q49 0 60 -27.5t11 -54.5q0 -68 -43 -132t-109.5 -117.5t-146.5 -90t-151 -51.5q-53 -96 -94 -163.5t-70 -110.5q-33 -51 -55 -84 q-18 -31 -43 -47.5t-46.5 -24.5t-38 -9t-20.5 -1q-12 0 -15 5t-3 9q0 2 1 4t1 4v3q12 14 34.5 46.5t48 73.5t53.5 87t51.5 85t39.5 67t18 34q-57 -8 -110 -10.5t-100 -2.5q-43 0 -79 2.5t-63 4.5q-31 2 -55 4q-41 2 -54.5 18t-13.5 33zM668 426q45 14 100 42t103.5 64.5 t81 81t32.5 93.5q0 12 -4 22q-8 23 -31 23q-45 0 -95 -50.5t-91 -111.5q-49 -72 -96 -164z" />
<glyph unicode="5" horiz-adv-x="978" d="M-37 131q0 47 24.5 112.5t79 124t140.5 99.5t209 41q33 0 66.5 -9.5t33.5 -29.5q0 -10 -9 -13t-20 -3q-98 0 -177 -33t-134 -80t-84 -99.5t-29 -93.5q0 -61 19.5 -96t47.5 -52t56.5 -21.5t49.5 -4.5q109 0 202.5 57.5t164.5 142.5t111 184.5t40 185.5t-45 141t-146 55 q-49 0 -96 -14t-84 -33q-43 -23 -82 -49q-16 -16 -29 -25q-6 -4 -10 -4q-20 4 -26.5 16.5t-6.5 26.5t2 21q2 6 2 8q12 18 30 46t38.5 61.5t43 70.5t42.5 74q49 84 102 182q4 8 11 15q4 4 13 9t22 5q53 8 112 16q51 6 113.5 10.5t124.5 4.5q61 0 112 -6q6 -2 15 -7 q14 -6 14 -26t-27 -62q0 -2 -4 -6q-6 -6 -14 -6q-6 0 -14.5 4t-25.5 8t-48 8.5t-84 4.5q-51 0 -110.5 -8.5t-120.5 -30.5q-6 0 -13 -6q-4 -4 -10 -10.5t-12 -16.5q-31 -51 -58 -96q-23 -39 -44 -77t-31 -59q0 -2 -2 -4t-2 -8q0 -4 6 -4q4 0 8 2q27 10 59 19q29 6 62.5 11 t72.5 5q131 0 189.5 -70.5t58.5 -175.5q0 -100 -48 -213.5t-134 -211t-205 -162t-258 -64.5q-10 0 -51 4t-86 24.5t-81 64.5t-36 126z" />
<glyph unicode="6" horiz-adv-x="774" d="M-35 240q0 94 35 202.5t95.5 216t144.5 208t180 177t201.5 122.5t212.5 46q27 0 46 -2t35 -6q18 -4 31 -8q8 -2 15 -6q12 -9 12 -25q0 -4 -2 -8q-4 -8 -19 -8q-6 0 -22 4q-4 2 -10 2h-31q-98 0 -195.5 -47t-187.5 -123t-167 -172t-134.5 -195.5t-90 -193.5t-32.5 -168 q0 -27 2 -64.5t13.5 -75.5t35 -69t68.5 -41q-12 55 -13 107q0 158 53.5 273.5t128 192t154.5 113.5t133 37q61 0 95 -23.5t50.5 -55.5t20.5 -66.5t4 -59.5q0 -119 -56 -224t-136 -184t-166 -126t-145 -47q12 -29 29.5 -57.5t45.5 -53.5l4 -4q2 -2 3 -8q0 -8 -7.5 -11.5 t-15.5 -3.5q-27 0 -51.5 13.5t-45 33t-34.5 41t-25 39.5q-92 4 -145 44t-79 90.5t-32 99.5t-6 74zM283 137q0 -68 18 -133q51 0 124 36t139.5 102.5t113.5 160.5t47 211q0 53 -22.5 94t-86.5 41q-41 0 -98 -34.5t-109.5 -100t-89 -161t-36.5 -216.5z" />
<glyph unicode="7" horiz-adv-x="819" d="M84 4q10 74 42 156t77 166t98 165.5t109 155.5q-41 -4 -56.5 -10t-19.5 -6q-16 0 -17 12q0 4 5 12l2 4q10 14 28 25q16 10 41 17.5t66 11.5q51 63 86 105t59.5 72t41 49t33.5 37.5t36.5 38t48.5 50.5q-53 23 -97 38t-96 15q-61 0 -113 -19.5t-91 -41.5q-45 -27 -80 -62 q-6 -4 -15 -4q-10 0 -14 10q-2 6 -2 11q0 16 16.5 51t48 69.5t81 62.5t112.5 28q53 0 93 -12.5t75 -29t66.5 -35t68.5 -30.5q92 80 171 124t138.5 65.5t98.5 25.5t47 4q51 0 60 -19.5t9 -31.5q0 -41 -31.5 -87t-86 -84t-124 -63.5t-145.5 -25.5q-45 0 -73 6q-16 4 -29 6 q-37 -37 -78 -84q-25 -29 -57 -65q-29 -33 -65 -78t-77 -100q10 -2 33 -4.5t51 -2.5q29 0 59 4.5t50 20.5q6 6 18 6q10 0 11 -10q0 -20 -15.5 -36.5t-41 -29t-56.5 -19.5t-61 -7q-25 0 -37.5 1t-20.5 3t-15 4t-22 2q-8 -10 -14 -20.5t-14 -20.5q-98 -145 -191.5 -320.5 t-144.5 -359.5q0 -4 -2 -10q-4 -10 -17 -10q-18 0 -30.5 15t-18.5 36q-8 23 -12 53zM909 1092q35 -6 68 -7q49 0 95 17.5t81 41t56.5 49.5t21.5 44q0 23 -33 23q-20 0 -57 -15.5t-78 -40t-83 -54.5t-71 -58z" />
<glyph unicode="8" horiz-adv-x="935" d="M-61 170q0 90 45 173t117.5 154.5t161.5 133t177 106.5q-27 35 -48 77t-21 81q0 53 33.5 111.5t94 107.5t143.5 82t183 33q41 0 80 -6t70 -23.5t50 -48.5t19 -80q0 -29 -11 -66.5t-44 -78.5q-6 -6 -6 -8t10 -5q35 -10 49.5 -28t14.5 -41q0 -10 -7.5 -13.5t-11.5 -3.5 q-14 4 -28.5 4h-28.5q-104 0 -200.5 -28.5t-188.5 -63.5q6 -8 12 -14l10 -10q6 -6 9 -10q47 -51 84 -109q33 -49 58.5 -110.5t25.5 -127.5q0 -43 -24 -118.5t-84 -147.5t-165.5 -125t-271.5 -53q-45 0 -99.5 10t-100.5 39t-76.5 78t-30.5 129zM68 172q0 -63 26.5 -100 t63.5 -56.5t76.5 -25.5t68.5 -6q106 0 178 44t115 101t60.5 110.5t17.5 73.5q0 74 -30 140.5t-66 119.5q-43 61 -99 113q-76 -37 -149.5 -92t-132 -121.5t-94 -142.5t-35.5 -158zM496 920q0 -23 3 -37.5t10 -27.5t17.5 -27.5t24.5 -36.5q72 35 156 64.5t178 51.5 q18 12 30 35q10 18 19.5 45t9.5 62q-2 33 -16.5 54t-34 33.5t-43 16.5t-47.5 4q-72 0 -129.5 -23.5t-97 -59.5t-60 -78t-20.5 -76z" />
<glyph unicode="9" horiz-adv-x="845" d="M-63 -123q0 8 14 17q8 4 14 6q92 2 189.5 59t188.5 148.5t172 207t141.5 234.5t95 231.5t34.5 198.5q0 82 -35.5 130t-113.5 48q-98 0 -186.5 -49t-155 -122t-104 -153.5t-37.5 -144.5q0 -51 27.5 -84t88.5 -33q74 0 133.5 45.5t100.5 110t63.5 139t22.5 131.5 q0 16 5 20.5t11 4.5q16 0 26.5 -10.5t16.5 -24.5t9.5 -29.5t3.5 -27.5q0 -84 -43.5 -163t-108 -139.5t-138 -97t-136.5 -36.5q-102 0 -148.5 50t-46.5 126q0 82 48 179t132 182t200 141.5t251 56.5q119 0 171 -71.5t52 -186.5q0 -100 -36 -222t-98.5 -246t-148.5 -241 t-187 -208t-213 -146t-226 -55q-18 0 -28.5 4t-14.5 8q-6 6 -6 12z" />
<glyph unicode=":" horiz-adv-x="657" d="M129 -4q0 25 11.5 48.5t28.5 42.5t38.5 30.5t40.5 11.5q20 0 31.5 -13t11.5 -36q0 -27 -12.5 -50.5t-31 -42t-39 -28.5t-38.5 -10q-20 0 -30.5 13t-10.5 34zM440 522q0 25 11.5 48.5t29 43t39 30.5t39.5 11q20 0 31.5 -13t11.5 -36q0 -27 -12 -50.5t-30.5 -41.5 t-39 -28.5t-39.5 -10.5q-20 0 -30.5 13.5t-10.5 33.5z" />
<glyph unicode=";" horiz-adv-x="634" d="M-70 -203q0 8 15 23q33 33 65 71q29 35 59.5 79t57.5 98q2 6 6 14q6 10 23 24q25 14 47 27q20 10 40.5 18.5t37.5 8.5q20 -1 22 -15q0 -16 -33.5 -70.5t-85 -115.5t-113 -112.5t-120.5 -61.5q-4 0 -10 2q-10 4 -11 10zM365 522q0 25 11 48.5t28.5 43t39 30.5t39.5 11 q20 0 31.5 -13t11.5 -36q0 -27 -12 -50.5t-30.5 -41.5t-39 -28.5t-38.5 -10.5q-20 0 -30.5 13.5t-10.5 33.5z" />
<glyph unicode="&#x3c;" horiz-adv-x="727" d="M135 561q0 10 2 12t2 5q2 10 20.5 26.5t46 37t62.5 44t72 45.5q84 53 190 117q4 2 13 4q16 4 37 4q4 0 14 -1t22.5 -3t21.5 -6t9 -10q0 -8 -14 -15q-74 -43 -144 -88q-59 -39 -124.5 -83t-112.5 -85q-2 -2 -4 -6q-4 -8 -4 -16q0 -6 2 -11q37 -66 73 -131 q33 -55 74 -115.5t84 -103.5q0 -2 2 -4t2 -10q0 -6 -16 -10q-8 -2 -19 -2q-29 0 -61.5 24.5t-64 61.5t-61.5 82t-53.5 85t-38.5 70.5t-20 38.5q-8 14 -10 24.5t-2 18.5z" />
<glyph unicode="=" horiz-adv-x="802" d="M6 434q0 8 18.5 31.5t69.5 34.5h309q88 0 155 1t73 5q2 2 4 2h8q10 0 10 -8q-8 -20 -21.5 -34.5t-35 -24t-54 -12.5t-79.5 -3h-172h-97.5t-87 -1t-62.5 -2t-21 -3q-16 0 -17 14zM131 666q0 8 18.5 31.5t69.5 33.5h309q88 0 155 1t73 5q2 2 4 2h8q10 0 10 -8 q-8 -20 -21.5 -34.5t-35 -23.5t-54 -12.5t-79.5 -3.5h-172h-97.5t-87 -1t-62.5 -2t-22 -3q-16 0 -16 15z" />
<glyph unicode="&#x3e;" horiz-adv-x="659" d="M35 186q0 8 14 15q76 43 146 88q59 39 123.5 84t111.5 84q2 2 4 6q4 8 4 16q0 6 -2 10q-35 68 -71 134q-33 55 -75 114.5t-85 102.5q0 2 -2 4t-2 10q0 4 6 6l12 4q8 2 17 2q29 0 61.5 -24.5t64 -61.5t61.5 -82t53.5 -85t38.5 -70.5t20 -38.5q8 -14 10 -24.5t2 -18.5 q0 -10 -2 -12t-2 -5q-2 -8 -20.5 -24.5t-46 -38t-62.5 -45t-72 -45.5q-84 -53 -190 -117q-4 -2 -13 -4q-16 -4 -37 -4q-2 0 -13 1t-23.5 3t-21.5 6t-9 10z" />
<glyph unicode="?" horiz-adv-x="755" d="M66 -8q0 49 18 77.5t40.5 44t42 19.5t23.5 4q43 0 43 -47q0 -18 -10 -41.5t-28.5 -43t-42 -34t-48.5 -14.5q-14 0 -26 6t-12 29zM219 795q0 78 47 138t112.5 103t135.5 66.5t113 30.5q-10 20 -33 35.5t-64 25.5l-8 4q-8 4 -8 12q0 16 18.5 22.5t40.5 6.5q43 0 84 -25.5 t56 -70.5h20q84 0 130 -24.5t68.5 -57.5t28 -64t5.5 -43q0 -70 -41 -128t-103.5 -112.5t-140.5 -107.5t-151.5 -110.5t-135 -122t-92.5 -142.5q0 -2 -4 -4t-7 -4t-7 -2q-10 0 -28.5 13.5t-18.5 48.5q0 55 45 105t113.5 102.5t148.5 104.5t148.5 110.5t113.5 124t45 139.5 q-4 29 -19 51q-12 20 -37.5 37.5t-70.5 21.5q0 -51 -28.5 -117.5t-81 -126t-124 -100.5t-159.5 -41q-8 0 -26.5 2t-37 12.5t-33 30t-14.5 56.5zM328 813q0 -14 8 -28.5t37 -14.5q59 0 108 32t85 79t56.5 99t20.5 95q-55 -6 -111.5 -29.5t-101.5 -58.5t-73.5 -79t-28.5 -95z " />
<glyph unicode="@" horiz-adv-x="1310" d="M-84 -10q0 121 42 236.5t114.5 219t169 190.5t205 149.5t222 98.5t220.5 36q111 0 182.5 -34t113.5 -87.5t58.5 -120.5t16.5 -135q0 -139 -47.5 -258t-118 -207t-151.5 -137.5t-146 -49.5q-61 0 -87 41t-26 86q0 18 2 36t6 32q4 16 8 29l2 6q0 2 -2 2q-4 0 -6 -2l-4 -4 q-49 -51 -94 -80t-82 -44.5t-64.5 -19.5t-39.5 -4q-33 0 -52.5 13.5t-30 32t-13.5 40t-3 35.5q0 90 51.5 187.5t129 178.5t172 133t180.5 52q8 0 26.5 -2t37 -11.5t32.5 -28.5t14 -54t-19.5 -74t-51 -71.5t-72.5 -54t-84 -21.5q-16 0 -29 4q-6 2 -10 4q-2 4 -2 8q0 8 8 12 q4 2 6 2q37 12 69 34t53.5 46.5t33.5 51t12 51.5q0 35 -17 40t-30 5q-49 0 -117.5 -50.5t-130 -124t-104.5 -156.5t-43 -147q0 -20 8 -35.5t33 -17.5q6 0 29.5 5t61.5 27.5t92.5 70t121.5 131.5q4 8 14 14q10 4 25.5 8t38.5 4h12q2 0 6 -2q6 -2 6 -10t-8 -23 q-20 -39 -39 -77q-16 -35 -28.5 -74t-12.5 -74q0 -23 11.5 -46t52.5 -23q37 0 92 38.5t106.5 108.5t88.5 165t37 208q0 25 -5.5 81t-36 114.5t-95 103.5t-181.5 45q-106 0 -208.5 -38t-194 -102.5t-168 -148.5t-132 -177t-87 -189.5t-31.5 -184.5q0 -35 8 -73.5t29.5 -72.5 t59.5 -55.5t95 -21.5q35 0 92.5 13.5t122.5 58.5q4 2 11 6q10 6 16 6q4 0 8 -4t4 -15q0 -27 -27.5 -55.5t-69.5 -51t-93 -37.5t-98 -15q-84 0 -138.5 29.5t-85 74.5t-42 98.5t-11.5 98.5z" />
<glyph unicode="A" horiz-adv-x="1511" d="M-139 233q0 145 59.5 275.5t155.5 229t217 155.5t246 57q47 0 86 -8t67.5 -18.5t46 -21.5t23.5 -17q2 -4 6 -8q6 -6 6 -17q0 -16 -18 -16q-2 0 -4 1t-4 1h-5q-37 16 -75.5 21t-73.5 5q-143 0 -265 -63.5t-210 -160.5t-137.5 -211.5t-49.5 -217.5q0 -68 17.5 -112 t40.5 -70q25 -31 59 -47q29 -14 58.5 -19.5t60.5 -5.5q55 0 108.5 14.5t94.5 32.5q49 23 90 47q51 29 111.5 81.5t121.5 113.5q-29 10 -52.5 19.5t-39.5 17.5q-18 8 -31 18q-84 53 -110.5 103.5t-26.5 87.5q0 55 32 91t79 56.5t100 27.5t94 7q61 0 99 -6q23 -4 41 -6 q43 -10 78.5 -22.5t66.5 -29.5q96 111 179 194t149 142q10 31 18 54.5t14 40.5q8 20 15 32q14 37 47 93.5t79 108.5t100 90t110 38q18 0 39.5 -10t21.5 -51q0 -55 -41 -110.5t-96 -106t-112.5 -94.5t-92.5 -78q-8 -23 -12 -41q-2 -8 -4 -17q-31 -88 -56 -186 q-23 -86 -44 -193.5t-35 -224.5q47 10 94 25.5t100 29.5q8 2 16 6q16 6 29 7q8 0 8 -7q0 -10 -11 -24t-26 -21q-115 -49 -217 -73q-6 -70 -6 -140q0 -33 3 -89t16.5 -119.5t40 -125t71.5 -104.5q6 -6 6 -12q0 -14 -12 -19q-6 -2 -12 -2q-31 0 -70 26t-72.5 84t-57 152.5 t-23.5 229.5v47.5t2 46.5q-47 -8 -90 -11t-84 -3q-66 0 -123.5 8t-104.5 18q-35 -35 -74.5 -70.5t-82.5 -70.5q-66 -53 -140 -94q-63 -35 -144 -63.5t-169 -28.5q-41 0 -80 8t-78 27q-41 23 -75 61q-29 35 -52.5 92t-23.5 143zM537 510q0 -39 33.5 -75t74.5 -62 q49 -31 109 -58q78 80 140 151.5t89 102.5q-10 6 -22.5 11.5t-24.5 9.5q-29 8 -59 16q-27 6 -61 10.5t-73 4.5q-35 0 -71.5 -7.5t-66.5 -20.5t-49 -33.5t-19 -49.5zM840 289q41 -10 89 -15.5t105 -5.5q35 0 73 2t79 9q2 10 3 19t1 19q-2 37 -19 74q-14 33 -42.5 71t-86.5 75 q-20 -25 -37.5 -50.5t-37.5 -48.5q-12 -20 -33 -43q-16 -20 -40 -46.5t-54 -59.5zM1083 584q31 -20 52.5 -41t38.5 -37q18 -18 28 -35q6 -8 8 -8l4 4l3 2q16 98 40.5 186t47.5 164q-53 -53 -110.5 -112.5t-111.5 -122.5zM1497 1081q14 10 48 37t70 60.5t62.5 70.5t26.5 68 q0 18 -16 18q-35 0 -69 -40t-63 -87q-33 -55 -59 -127z" />
<glyph unicode="B" horiz-adv-x="1302" d="M-215 748q0 70 34 137t90 127.5t131 112t158 89t170 59t164 21.5q82 0 135.5 -22.5t84 -58t43 -77.5t12.5 -81v-21.5t-2 -21.5q41 25 94 54.5t113.5 55t125 44t128.5 18.5q29 0 61.5 -5t60 -20.5t46 -41t18.5 -68.5q0 -59 -42 -122t-108.5 -120t-150.5 -105.5t-168 -76.5 q-2 -2 -6 -4q-6 -2 -6 -9q0 -4 8 -10q55 -18 96 -53q35 -29 64.5 -78t29.5 -123q0 -70 -35.5 -160t-112.5 -169.5t-198 -135t-291 -55.5q-59 0 -113 11t-96 33t-67 52.5t-25 67.5q0 29 7.5 44t17.5 23t25 11q12 0 16 -13q2 -6 2 -12q12 -53 46 -83t73 -44t72.5 -18t46.5 -4 q102 0 181 26.5t135 68.5t94 93t61.5 101.5t33 93.5t9.5 65q0 78 -40 124t-87 71q-55 29 -127 39q-27 2 -32 8t-5 10q0 14 8 23.5t17.5 15.5t17.5 8t10 2q102 12 195.5 55t165 99.5t114.5 117t43 107.5q0 49 -34.5 65.5t-75.5 16.5q-57 0 -119 -19.5t-120 -47t-107.5 -57.5 t-81.5 -52q-14 -70 -48 -155t-80.5 -171t-102.5 -167t-113.5 -143.5t-112.5 -100t-100 -37.5q-43 0 -54.5 25.5t-11.5 51.5q0 29 8 59t19 54q10 29 24 57q45 84 113 175q59 78 148 172t214 186q6 29 10.5 50.5t4.5 57.5q0 23 -6.5 52.5t-29 57.5t-65.5 47.5t-114 19.5 q-94 0 -203 -37t-200 -97.5t-151.5 -138.5t-60.5 -160q0 -14 4 -31.5t19.5 -30.5t45.5 -22.5t81 -9.5q49 0 116.5 15.5t143.5 62.5q2 0 6 2t12 2q14 0 15 -16q0 -20 -29 -49t-77 -55.5t-108.5 -45t-123.5 -18.5q-106 0 -153.5 39t-47.5 117zM260 295q0 -23 21 -23 q25 0 63.5 39t81.5 97.5t86 128t78 132t56.5 110t21.5 59.5q-102 -82 -173 -161t-116 -142q-53 -74 -86 -142q-8 -18 -17 -37q-6 -16 -11 -31.5t-5 -29.5z" />
<glyph unicode="C" horiz-adv-x="1218" d="M-279 1036q0 33 18.5 95.5t71 124t147.5 107.5t247 46q39 0 88 -10t92 -26.5t72.5 -35t29.5 -37.5q0 -8 -9 -10t-17 -2t-24.5 9.5t-49.5 20.5t-84 20.5t-129 9.5q-131 0 -202.5 -43t-106.5 -97.5t-42 -103.5t-7 -64q0 -70 22.5 -124t59 -93t84 -65.5t96.5 -44.5 q115 -41 262 -45q29 49 78 112.5t113.5 130t142.5 131t164 114.5t177 81t181 31q53 0 81 -17.5t40 -40.5q14 -24 16 -57q0 -59 -57 -150.5t-170 -178.5t-280 -150.5t-386 -65.5q-49 -84 -77.5 -151.5t-45.5 -118.5q-18 -59 -26 -107q-2 -12 -4 -26q-2 -12 -3 -29.5t-1 -38.5 q0 -37 6 -78t25.5 -78.5t55.5 -67.5t93 -42q14 188 82.5 316t154.5 207t171 113t135 34q43 0 69.5 -13.5t40.5 -35t18.5 -48t4.5 -55.5q0 -113 -58.5 -219.5t-145.5 -188t-187.5 -132t-186.5 -50.5q6 -53 24.5 -101t57.5 -85l6 -6q6 -6 6 -13q0 -4 -2 -6q-8 -8 -18 -8 q-27 0 -56.5 18.5t-53 49t-40 69.5t-18.5 82q-14 0 -27 4q-6 2 -8 2q-86 14 -138 53.5t-81 88.5t-39 103t-10 100q0 53 6 86q4 20 6 34q8 45 25 99q14 47 39.5 107.5t64.5 131.5q-164 4 -291 51q-55 20 -107 51t-93 77.5t-67 107.5t-26 141zM481 670q88 0 178.5 23.5 t173 62.5t155.5 89t127 103t85 104.5t31 94.5q0 16 -8 27q-6 10 -20.5 17t-43.5 7q-59 0 -120.5 -22.5t-120 -59.5t-113.5 -85t-105 -97q-113 -117 -219 -264zM559 -135q78 0 163 46t156.5 119.5t118.5 167t47 185.5q0 33 -13 60.5t-54 27.5q-68 0 -125 -34t-103.5 -87 t-82 -120.5t-59 -135t-36 -128t-12.5 -101.5z" />
<glyph unicode="D" horiz-adv-x="1296" d="M-311 -88q0 33 29.5 59.5t74.5 45t99.5 28.5t105.5 10q45 0 106.5 -5t139.5 -21q23 20 40 37.5t29 31.5q14 16 25 31q20 27 44 62.5t48.5 76.5t50 84t47.5 84q53 96 107 199q92 158 163.5 280.5t139.5 202.5q-41 35 -101.5 72t-135 65.5t-158.5 47t-174 18.5 q-119 0 -198 -29.5t-126 -73.5t-66.5 -96.5t-19.5 -99.5q0 -39 12.5 -88t47 -104.5t96 -115t161.5 -116.5q4 -2 9 -6q6 -6 6 -12q0 -4 -3 -9.5t-22 -5.5q-12 0 -48 10.5t-83 34t-97 60.5t-93 89t-71 120.5t-28 154.5q0 47 18.5 107.5t74 114t156 91t265.5 37.5 q193 0 344.5 -55t286.5 -153q47 49 99 88q43 35 95 61.5t103 26.5q6 0 13.5 -3.5t7.5 -13.5q0 -4 -6 -10q-10 -10 -29 -18q-20 -6 -49 -26.5t-59.5 -47.5t-58.5 -56.5t-46 -56.5q68 -57 110.5 -119.5t67.5 -124t34 -121t9 -110.5q0 -135 -54 -262t-152.5 -227.5t-238 -161 t-309.5 -60.5q-88 0 -159.5 9.5t-100.5 15.5q-47 -39 -106 -70q-51 -27 -119 -48t-149 -21q-25 0 -61 3t-67.5 13t-54 28.5t-22.5 47.5zM-180 -74q2 -12 14 -20q10 -8 33.5 -13.5t64.5 -5.5q72 0 133.5 26.5t112.5 61.5q-49 10 -89 13.5t-75 3.5q-109 0 -151.5 -21.5 t-42.5 -44.5zM330 10q23 -4 63.5 -9t95.5 -5q160 0 286 57.5t214 151.5t134 211.5t46 240.5q0 96 -24.5 169t-52.5 124q-35 59 -80 105q-55 -78 -124 -195t-153 -282q-53 -102 -117 -203q-53 -86 -126.5 -184.5t-161.5 -180.5z" />
<glyph unicode="E" horiz-adv-x="1060" d="M-332 -70q0 31 22.5 62t67.5 55.5t115 39.5t166 15q41 0 88 -3t100 -13q68 66 124.5 143.5t97.5 145.5q49 80 88 157q12 31 26 52q-45 -2 -75.5 -8.5t-49.5 -12.5q-23 -8 -32 -16q-2 -2 -7 -2q-8 0 -8 10q0 6 8.5 21.5t31 31t63.5 28.5t106 19q86 154 155.5 237 t118.5 124q57 47 105 57q2 2 6 2h10q12 0 15 -6v-2q0 -4 -4.5 -11t-24.5 -24q-29 -20 -66 -69q-33 -41 -80 -115t-110 -197q16 -2 39.5 -5t83.5 -3q59 0 126.5 10.5t106.5 40.5q2 0 4 2t11 2q10 0 10 -10q0 -8 -9.5 -29.5t-33 -45t-64.5 -41t-102 -17.5q-72 0 -126 12.5 t-83 12.5q-23 -39 -60.5 -104.5t-74.5 -123.5q-27 -43 -64 -90q-31 -41 -74.5 -91t-101.5 -101q213 -43 392.5 -108.5t348.5 -126t335.5 -103.5t353.5 -43q141 0 284.5 34.5t268.5 131.5h6q4 0 5 1t5 1q6 0 10 -4q2 -3 2 -5q0 -16 -14 -34q-8 -8 -16 -19 q-70 -72 -156 -112.5t-166 -60t-143.5 -25t-91.5 -5.5q-127 0 -248 26t-240 66t-237.5 89t-240.5 96t-251 88t-266 63q-51 -37 -96 -66.5t-93.5 -50t-103.5 -31.5t-127 -11q-82 0 -124 22.5t-42 46.5zM-215 -43q0 -20 27.5 -28.5t48.5 -8.5q55 0 106 14.5t92 33t70 38 t39 29.5q-35 4 -64.5 6t-56.5 2q-74 0 -124 -10t-80.5 -24.5t-44 -29t-13.5 -22.5zM92 854q0 47 33 118.5t106.5 137.5t194.5 113t297 47q96 0 168 -12.5t140.5 -26.5t146 -26.5t182.5 -12.5q72 0 134 10t108 39q2 2 6 4t10 2t8 -2l4 -4q2 -2 2 -10q0 -25 -32.5 -50.5 t-84 -45t-114 -32.5t-121.5 -13q-100 0 -177 16t-145.5 36.5t-136 37t-147.5 16.5q-113 0 -203 -30.5t-154.5 -77t-99.5 -97.5t-35 -92q0 -70 94 -70q29 0 69 10.5t84 30t86 48t75 63.5l8 8q6 6 14 6q4 0 6 -2l5 -4q2 -2 2 -12q0 -16 -25 -55t-73 -80t-116.5 -73t-154.5 -32 q-96 0 -130 36t-34 81z" />
<glyph unicode="F" horiz-adv-x="1155" d="M-211 -94q0 80 72.5 149.5t183.5 121.5t245 83t257 31q14 27 26.5 50.5t22.5 45.5q25 53 47 94q12 23 23 45q6 14 12 26.5t12 25.5q-90 -4 -124 -20.5t-38 -18.5q-8 0 -8 14q0 6 11.5 20.5t36 29.5t63.5 28.5t96 17.5q41 80 93 156t106.5 134t106.5 94t91 36q4 0 10.5 -1 t8.5 -7q0 -4 -5 -11.5t-28 -23.5q-33 -25 -72 -76q-35 -43 -81 -115.5t-103 -189.5q10 0 46 -3t83 -3q74 0 117 8t67.5 18.5t34.5 18.5t21 8q12 0 12 -10q0 -12 -9 -34.5t-34 -44t-65 -38t-101 -16.5q-66 0 -116 12t-91 12q-10 -25 -27.5 -60.5t-39 -76.5t-43 -81t-41.5 -72 q14 -2 50 -8.5t74.5 -22.5t68.5 -44t30 -71q0 -25 -14 -24q-4 2 -7.5 4t-7.5 4t-4 4q-16 14 -44 29.5t-59.5 28t-66.5 20.5t-65 8q-25 -43 -83.5 -114.5t-145.5 -139.5t-197.5 -118t-237.5 -50q-29 0 -59.5 5t-55 19.5t-40 36t-15.5 56.5zM-88 -68q2 -20 14 -36 q10 -14 32 -24.5t62 -10.5q111 0 200 56t153 124q74 80 133 178q-129 0 -237.5 -30.5t-188.5 -74.5t-124 -93.5t-44 -88.5zM201 846q0 47 32.5 118.5t106.5 137t194.5 113t296.5 47.5q96 0 168 -12.5t140.5 -27t146.5 -26.5t182 -12q72 0 134.5 10t107.5 39q2 2 6 4t10 2 t9 -2l4 -4q2 -2 2 -10q0 -25 -33 -50.5t-84 -45t-113.5 -33t-121.5 -13.5q-100 0 -177 16.5t-146 37t-136.5 37t-147.5 16.5q-113 0 -203 -31t-154.5 -77t-99 -97t-34.5 -92q0 -70 94 -70q29 0 69 10.5t84 30t86 48t74 63.5l9 8q6 6 14 6q4 0 6 -2l4 -4q2 -2 2 -12 q0 -16 -24.5 -55.5t-72.5 -80t-116.5 -72.5t-154.5 -32q-96 0 -130 36t-34 81z" />
<glyph unicode="G" horiz-adv-x="1183" d="M-236 -236q0 84 71 167t187.5 148.5t267 106.5t310.5 41q33 53 58.5 98.5t35.5 65.5q-37 -6 -69.5 -9t-55.5 -5q-27 -2 -49 -2q-96 0 -152.5 25.5t-86 60.5t-37.5 72.5t-8 64.5q0 35 5 55.5t13 48.5q-109 10 -170 38t-92 61t-38 64.5t-7 47.5q0 78 51 141.5t127 108.5 t164 69.5t164 24.5q120 0 120 -26q0 -10 -13 -13.5t-23 -3.5q-86 0 -171 -24.5t-153 -67.5t-110 -99t-42 -120q0 -37 20.5 -62.5t52.5 -42t71 -24.5t74 -8q70 139 182 236.5t231 158t226.5 88t166.5 27.5q51 0 82 -11.5t46.5 -28.5t20.5 -34.5t5 -30.5q0 -51 -38 -105 t-103.5 -104.5t-151.5 -95.5t-180 -80.5t-193.5 -57t-189.5 -26.5q-8 -31 -15.5 -52t-7.5 -52q0 -18 6.5 -46t28 -53.5t62.5 -43t110 -17.5q41 0 81 5.5t87 15.5q74 115 139.5 182.5t121 102t97.5 45t64 10.5q25 0 38 -8.5t19 -18.5q8 -12 9 -27q0 -49 -35 -99t-91.5 -95 t-127 -80t-140.5 -51q-25 -41 -52 -92.5t-56 -110.5q141 -18 268 -68.5t223.5 -114t152.5 -130t56 -117.5q0 -6 -1 -15.5t-9 -9.5q-12 0 -16 9q-27 43 -83.5 103t-144.5 118.5t-207.5 103.5t-273.5 58q-41 -78 -117.5 -167t-177 -165t-221.5 -126t-250 -50 q-63 0 -109.5 26.5t-46.5 91.5zM-115 -219q0 -41 30 -53.5t58 -12.5q74 0 152 31t154.5 89.5t149.5 140.5t132 186q-141 -10 -246.5 -39t-181.5 -67t-124 -81t-75.5 -81.5t-38 -69.5t-10.5 -43zM410 768q127 6 256 48t231 98.5t166.5 121t64.5 115.5q0 14 -15 35.5t-75 21.5 q-78 0 -175 -40t-189 -102t-164 -141t-100 -157zM877 500q39 14 77.5 32.5t72.5 44t60.5 56t38.5 69.5q0 6 -2 13q-4 12 -18 12q-10 0 -32.5 -10t-53.5 -36t-68 -70t-75 -111z" />
<glyph unicode="H" horiz-adv-x="1366" d="M-100 766q0 94 68.5 194.5t183 183.5t265 136t314.5 53q12 0 55 -4t90.5 -21.5t84 -55.5t36.5 -105q0 -12 -5 -49t-25.5 -103.5t-62.5 -165t-116 -235.5q43 10 73 16t61.5 10.5t72.5 7.5t107 7q70 125 131 217q-39 10 -61.5 24.5t-32.5 30.5q-12 18 -17 39q8 23 21 23 q6 0 10 -4l4 -4q29 -23 59.5 -32t63.5 -14q84 106 168 189q37 35 77 68.5t83 60.5t86 42t82 15q27 0 40 -10t19 -23q8 -14 8 -34q0 -45 -30.5 -103.5t-92 -113t-156 -98.5t-221.5 -60q-31 -47 -63.5 -101.5t-65.5 -115.5q16 -2 43 -7.5t52.5 -15.5t44 -27.5t18.5 -45.5 q0 -10 -5 -23.5t-15 -13.5q-4 0 -9 4l-2 2q-4 10 -17 18t-30 15q-18 8 -37 14q-18 4 -36.5 8t-38.5 8q-51 -96 -90 -196q-35 -86 -63 -188.5t-28 -200.5q0 -55 10.5 -104.5t37 -86.5t69.5 -58.5t111 -21.5q55 0 121 27h4q2 0 5 1t5 1q14 0 14 -12q0 -18 -17.5 -34t-43 -27 t-56 -17t-59.5 -6q-82 0 -141.5 29.5t-98 78.5t-56 110.5t-17.5 127.5q0 98 28.5 201.5t63.5 189.5q39 98 90 192q-88 -2 -171 -17t-150 -34q-12 -23 -46 -82t-84.5 -134t-115 -154.5t-138 -146t-155.5 -111t-166 -44.5q-39 0 -61.5 18.5t-22.5 59.5q0 92 67.5 188.5 t171 182.5t223.5 152.5t224 101.5q55 100 101.5 192.5t78 169t49 134t17.5 84.5q0 49 -20.5 76.5t-50 41t-64.5 16.5t-64 3q-98 0 -220 -38t-228.5 -104.5t-179 -154.5t-72.5 -189q0 -27 8 -52t29.5 -45.5t56.5 -34t86 -13.5q20 0 64.5 5t101.5 25.5t123.5 62.5t132.5 118 q2 2 6 4t10 2q8 0 9 -8q0 -6 -3 -12q-20 -63 -71 -114.5t-116.5 -87.5t-137.5 -55.5t-135 -19.5q-131 0 -194.5 58.5t-63.5 148.5zM74 -33q0 -23 13 -29t28 -6q37 0 76.5 24t81.5 61.5t82 86t77 99.5q86 118 170 270q-172 -76 -275.5 -159t-159.5 -155.5t-74.5 -124.5 t-18.5 -67zM1401 926q41 4 99.5 28.5t112.5 59.5t93 79t39 89q0 8 -2 16q-4 16 -19 16q-35 0 -89 -45t-107 -98q-61 -63 -127 -145z" />
<glyph unicode="I" horiz-adv-x="858" d="M-150 33q0 98 59.5 178t143.5 137.5t175 89t155 31.5q41 0 47 -9t6 -14q0 -8 -8 -12q-4 -2 -8 -2q-88 -12 -169 -53t-142.5 -97.5t-97.5 -120t-36 -116.5q0 -41 26 -56.5t60 -15.5q174 0 324 138.5t279 396.5q47 96 93 185t83 160t61.5 117t30.5 58q-129 -14 -213 -49 t-135.5 -76t-71.5 -82t-20 -67q0 -14 2 -19q0 -23 -19 -22q-4 0 -14 4t-21.5 15t-19.5 29.5t-8 47.5q0 78 55 128t138 82t182.5 49t187.5 30q57 94 125 168q29 31 61.5 61.5t68.5 54t74.5 38t77.5 14.5q23 0 45.5 -11.5t22.5 -52.5q0 -45 -16.5 -84t-43 -69.5t-60.5 -55 t-70 -43.5q-84 -43 -191 -69q-12 -20 -29.5 -49t-41 -72t-53.5 -104.5t-66 -147.5q-59 -141 -147.5 -279.5t-199 -249t-239.5 -178t-270 -67.5q-35 0 -67 6t-55.5 21.5t-37 40t-13.5 63.5zM1110 1126q72 20 125 52q47 27 85 63.5t38 89.5q0 10 -5 16.5t-24 6.5 q-25 -2 -57 -27q-29 -23 -69 -68t-93 -133z" />
<glyph unicode="J" horiz-adv-x="1011" d="M-213 -305q0 88 37 175t100.5 165t147.5 145.5t181 116.5t200.5 77.5t203.5 28.5q37 66 72 131.5t66 129.5l71.5 143t57.5 113q29 55 53 102l2 4q2 4 4 7t4 7q-8 0 -15 -1t-11 -1q-6 0 -9 -2q-147 -18 -229 -59t-122 -86t-48 -84t-8 -55q0 -23 -19 -23q-4 0 -14 5 t-21.5 17.5t-19.5 32t-8 47.5q0 78 58.5 129.5t144.5 83t185 47t179 21.5q57 94 123 168q55 63 128 115.5t153 52.5q27 0 49 -13.5t22 -56.5q0 -66 -37.5 -120t-95 -94t-126 -65.5t-128.5 -35.5q-12 -25 -25.5 -52.5t-27.5 -56.5q-37 -84 -84 -178q-41 -80 -92 -181 t-111 -210q37 -10 74 -39t37 -88q0 -18 -4 -24.5t-8 -6.5q-6 0 -15 9l-8 8q-20 29 -50 46t-65 27q-61 -111 -125.5 -209t-119.5 -169q-63 -80 -130 -152t-137.5 -124t-146.5 -83t-158 -31q-66 0 -100.5 33t-34.5 113zM-86 -281q0 -53 23.5 -70.5t48.5 -17.5q47 0 99 30 t105.5 79t105.5 112.5t99 129.5q112 155 221 350q-141 0 -268 -58.5t-223 -149.5t-153.5 -198.5t-57.5 -206.5zM1161 1141q72 18 125 47q47 25 85 62.5t38 90.5q0 27 -31 27q-10 0 -25.5 -4t-41 -26.5t-61.5 -67.5t-89 -129z" />
<glyph unicode="K" horiz-adv-x="1212" d="M-119 -106q0 51 28 111.5t75 121.5t111.5 120.5t136 113t149.5 97.5t151 70q74 135 119 230.5t70 156.5q29 72 43 121q8 25 8 51q0 31 -13.5 50.5t-32.5 29t-40.5 12.5t-38.5 3q-102 0 -212.5 -45t-203 -114t-153 -148.5t-60.5 -149.5q0 -25 11.5 -41t29 -25.5t39 -12.5 t41.5 -3q43 0 132 37t194 129q2 2 6 4q8 4 12 4q8 0 9 -10q0 -8 -3 -12q-27 -80 -84 -128.5t-117.5 -73t-112.5 -32.5t-73 -8q-102 0 -136 41t-34 98q0 84 64.5 181.5t171 181.5t244 140t282.5 56q29 0 63 -4t61.5 -17t47 -38t21.5 -64v-7q-1 -33 -15 -99q-16 -74 -84 -225 v-4q0 -6 7 -7q2 0 8 7l33 33q34 32 91.5 83.5t132.5 109.5t156.5 109.5t163.5 85t154 33.5q43 0 85 -13t42 -42q0 -14 -27 -14q-49 -2 -103 -16.5t-109.5 -37t-108.5 -50t-103 -56.5q-113 -68 -225 -152q-102 -78 -160.5 -131t-89.5 -88q-37 -39 -49 -65l-6 -13q29 4 43 6.5 t31 2.5q115 0 153.5 -73t38.5 -202q0 -76 5 -153.5t24.5 -150.5t57.5 -135.5t105.5 -109.5t169 -74.5t244.5 -27.5q27 0 90.5 5t140.5 24.5t155.5 59.5t136.5 112q10 12 17 20t15 8q14 0 19 -20q2 -9 2 -19q0 -63 -56.5 -112t-139.5 -82t-180 -49.5t-179 -16.5 q-195 0 -334 45t-228 128t-131 199t-42 255q0 145 -19.5 225t-99.5 80q-31 0 -76 -10q-14 -25 -27.5 -49.5t-29.5 -51.5q-16 -29 -37 -65q-16 -31 -41 -70t-53 -82q-51 -76 -110.5 -145.5t-122 -121.5t-127 -83t-130.5 -31q-84 0 -84 89zM-14 -70q0 -29 16 -37t31 -8 q35 0 72.5 23.5t75.5 63.5t76 90.5t71 101.5q79 122 155 278q-4 -2 -6 -4t-6 -4t-6 -2q-154 -86 -248 -169t-145.5 -152.5t-68.5 -117.5t-17 -63z" />
<glyph unicode="L" horiz-adv-x="983" d="M-340 -88q0 63 86 100t238 37q47 0 107.5 -5t131.5 -19q72 72 132.5 159.5t106.5 165.5t72.5 135.5t30.5 65.5q-63 -12 -143 -12q-76 0 -149.5 15t-132 49t-94.5 88t-36 132q0 102 54.5 171t131 109t159.5 56.5t141 16.5q57 0 101 -8.5t75 -18.5q37 -12 65 -29 q10 -10 11 -18q0 -12 -21 -12q-4 0 -6 1t-4 1h-4q-45 14 -91.5 18t-80.5 4q-113 0 -195 -31.5t-135 -78t-79 -100.5t-26 -97q0 -66 31 -107t77 -63.5t100.5 -29.5t103.5 -7q45 0 78.5 3t56.5 7q27 4 47 8q31 49 68 120t81 145.5t97 148.5t116.5 133.5t139.5 95t164 35.5h2 q4 0 16 -2t25.5 -11t23.5 -29.5t10 -55.5q0 -47 -35.5 -129t-112.5 -172t-196.5 -174t-285.5 -137q-49 -86 -85 -152.5t-78 -131t-97.5 -134.5t-141.5 -162q160 -31 295 -71.5t254 -82.5t227.5 -82t217 -71t222 -50.5t245.5 -19.5q127 0 247.5 28t223.5 97h4q2 0 5 1t5 1 q12 0 14 -6q2 -4 2 -6q0 -10 -25.5 -44t-88 -71t-169 -65.5t-268.5 -28.5q-178 0 -341.5 47t-337 113.5t-365 139.5t-422.5 122q-49 -37 -93 -64.5t-90 -47t-98.5 -30t-117.5 -10.5q-37 0 -73 7.5t-63.5 20.5t-44 32.5t-16.5 46.5zM-223 -82q0 -16 12 -24.5t28.5 -12.5 t34 -5t29.5 -1q70 0 123 15.5t88 33.5q41 22 72 49q-47 8 -88 10.5t-76 2.5q-119 0 -171 -21.5t-52 -46.5zM752 662q139 53 233 131.5t151.5 157.5t82 143.5t24.5 87.5q0 27 -11 35t-28 8q-51 0 -103 -39t-99.5 -98.5t-89.5 -127t-71.5 -126t-48 -95.5t-18.5 -32z" />
<glyph unicode="M" horiz-adv-x="1808" d="M-262 147q0 121 48 221.5t125 172t171 111.5t186 40q86 0 138.5 -30.5t52.5 -71.5q0 -4 -1 -11.5t-12 -7.5q-12 0 -23 6.5t-26.5 13.5t-40 13t-63.5 6q-63 0 -144 -34.5t-153 -98t-121 -152.5t-49 -198q0 -78 41 -128t139 -50q55 0 123 21.5t146.5 78.5t173 157.5 t204 258.5t238.5 381t276 526q0 4 4 8q8 8 15 9q2 0 6 -3q6 -4 14 -16q20 -70 41 -151q16 -72 32.5 -163t25.5 -196q53 53 112.5 109.5t126.5 115.5q86 74 168 134q35 25 74 50t78 46.5t75.5 36t67.5 20.5q2 2 4 2h8q6 0 12.5 -2t6.5 -12q0 -12 -15 -35q-106 -176 -202 -369 q-41 -82 -83 -175t-79 -193.5t-67.5 -203.5t-49.5 -206q-2 -12 -4 -28q-2 -14 -3 -33t-1 -41q0 -188 116.5 -302t358.5 -114q49 0 107.5 8t121 28.5t125 57.5t121.5 96q8 6 17 15q14 14 24 14q6 0 10 -18q2 -9 2 -19q0 -23 -16 -54.5t-72 -70.5q-55 -39 -114.5 -63.5 t-116.5 -37.5t-108.5 -17.5t-90.5 -4.5q-137 0 -235 27t-165 70t-106.5 96t-61 106.5t-28 100.5t-6.5 78q0 72 16.5 156.5t44 176t61.5 182.5t71 175q84 199 190 401q4 6 4 15q0 6 -6 6t-10 -2t-6 -4q-68 -39 -126.5 -84t-111.5 -93q-70 -59 -128 -117.5t-107 -111.5v-43 q0 -164 -39 -293t-95.5 -218t-121 -136t-117.5 -47q-8 0 -21.5 2t-25.5 12t-20.5 31.5t-8.5 58.5q0 59 20.5 121t61.5 132.5t105.5 156.5t152.5 196q0 86 -6 158t-16 125q-10 63 -25 117q-6 14 -10 14q-2 0 -6 -4q-2 -2 -2 -6q-80 -158 -166 -313.5t-177.5 -296t-187.5 -260 t-195.5 -207.5t-203 -137.5t-207.5 -49.5q-98 0 -150.5 36t-77 83t-28.5 89t-4 54zM956 176q0 -29 10.5 -35t20.5 -6q39 0 77 56.5t66.5 135.5t47 165t18.5 147q-57 -72 -102 -142.5t-76 -132t-46.5 -109.5t-15.5 -79z" />
<glyph unicode="N" horiz-adv-x="1398" d="M-244 125q0 141 56.5 249.5t138.5 183.5t175 114t167 39q41 0 83 -13.5t79 -48.5q4 -4 10 -12q10 -14 10 -29q0 -14 -14 -22q-4 2 -10 4t-27 10q-31 14 -59.5 19.5t-57.5 5.5q-82 0 -165 -45t-147.5 -117t-105.5 -159t-41 -173q0 -70 38 -121t134 -51q70 0 154 35 t181.5 118t209 220t234.5 342q0 78 4 138t8 103q6 51 10 86q27 129 63 203t69.5 111t61 45t38.5 8q25 0 38 -12.5t19 -30.5t7 -40.5t1 -45.5q0 -49 -18.5 -111.5t-48 -131t-67.5 -139.5t-77 -138q2 -10 2 -21.5v-21.5q6 -109 15 -213q8 -90 22.5 -187.5t38.5 -169.5 q2 -2 4 -6q4 -8 10 -8q8 0 17 17q12 33 33 79q16 41 43.5 99.5t68.5 136.5q25 51 56 111q27 51 62.5 118.5t76.5 139.5q-12 0 -34 10t-43.5 27.5t-37.5 41t-16 50.5q0 29 11 44t19 15q10 0 19 -8q4 -4 4 -10q23 -47 54.5 -68t66.5 -31q45 78 104.5 162t127 153.5t139 115.5 t139.5 46q33 0 49 -12t24 -29q9 -18 11 -43q0 -66 -45 -147.5t-122 -154t-179.5 -123t-214.5 -50.5q-74 -129 -146 -270t-129 -262q-68 -141 -125 -279q-10 -29 -18 -46t-15 -27q-8 -12 -14 -19q-4 -2 -12 -2q-20 0 -37.5 24.5t-30.5 55.5q-14 37 -26 82q-35 145 -52.5 273 t-23.5 239q-117 -188 -228.5 -315t-214 -203t-194.5 -107.5t-168 -31.5q-90 0 -139 36.5t-72 79.5q-27 51 -31 115zM907 854l19 35q37 61 63 121q23 51 42.5 108.5t19.5 102.5q0 14 -4.5 29.5t-16.5 15.5q-27 0 -50.5 -45t-38.5 -109.5t-24.5 -135.5t-9.5 -122zM1475 854 q68 0 140.5 40t132.5 96.5t98 114.5t38 95q-4 25 -11 30t-26 5q-20 0 -44.5 -12.5t-51.5 -33t-52.5 -46t-49.5 -51.5q-55 -63 -115 -146q-16 -23 -29.5 -45t-29.5 -47z" />
<glyph unicode="O" horiz-adv-x="1071" d="M-18 139q0 92 20.5 169t42.5 136q27 68 61 125l-2 33q-1 11 -1 23q-1 105 49 219q54 127 154 233.5t234 176t285 69.5q45 0 100.5 -11.5t103.5 -45t81 -98.5t33 -171q0 -133 -35 -270t-96.5 -266t-144.5 -243t-182 -197.5t-208.5 -133t-222.5 -49.5q-76 0 -128 24.5 t-84 65.5t-46 95.5t-14 115.5zM94 129q0 -45 10.5 -84t34 -68.5t61.5 -46t93 -16.5q92 0 184 53t174 142.5t152.5 202t122 232.5t80 236.5t28.5 210.5q0 119 -52 187.5t-194 68.5q-70 0 -140 -24.5t-134.5 -66.5t-120 -97t-97.5 -113.5t-65.5 -118t-23.5 -110.5 q66 78 126 122t107 64.5t78 24.5t35 4q8 0 15 -2t7 -10q0 -14 -16 -23.5t-39 -22.5q-49 -27 -102 -71q-45 -39 -98.5 -98.5t-102.5 -151.5q8 -20 28.5 -44t61.5 -24q16 0 25 2q2 2 6 2h10q14 0 14 -12q0 -14 -27.5 -41.5t-80.5 -27.5q-57 0 -88 34q-18 -45 -35 -98 q-14 -45 -25.5 -100.5t-11.5 -114.5z" />
<glyph unicode="P" horiz-adv-x="1310" d="M-96 -111q0 70 59.5 128.5t146.5 100.5t186 64.5t181 22.5h33.5t30.5 -2q33 55 65.5 114.5t61.5 114.5q-29 10 -52 27q-20 14 -36.5 36.5t-16.5 53.5q0 10 4 18q8 16 19 17q14 0 24 -15q6 -8 11 -16q25 -23 42 -33t37 -20q55 115 119 216t129.5 179t130 123t119.5 45 q4 0 11.5 -1t7.5 -9q0 -6 -13 -19q-6 -6 -14 -10q-53 -37 -113 -106q-51 -59 -117.5 -164t-138.5 -269l-8 -18q16 -4 32.5 -4h33.5q98 0 190 31.5t165 92t117 147.5t44 198q0 68 -26 114t-65.5 77.5t-90 50t-100.5 27.5t-94 12.5t-73 3.5q-158 0 -295 -38t-237.5 -97.5 t-157.5 -132t-57 -142.5q0 -47 27.5 -65.5t97.5 -18.5q37 0 87 13.5t103 40t108.5 67.5t100.5 96l8 8q6 6 14 6t9 -22q-8 -53 -56.5 -109.5t-117 -101.5t-148.5 -74t-149 -29q-100 0 -144.5 40t-44.5 106q0 98 66.5 190.5t184.5 165t282 116.5t356 44q109 0 205 -24.5 t169 -70.5t116 -113.5t43 -151.5q0 -119 -56.5 -216.5t-148.5 -167t-208 -106.5t-235 -37q-45 0 -88 6q-33 -59 -64.5 -115.5t-62.5 -103.5q43 -16 69 -41.5t26 -54.5q0 -14 -11 -14q-4 0 -12 4q-4 2 -8 2q-49 35 -105 47q-68 -92 -140.5 -156.5t-143 -104.5t-136 -57.5 t-120.5 -17.5q-168 0 -168 102zM33 -90q0 -31 24.5 -41t53.5 -10q86 0 156.5 44t123.5 97q62 63 113 141q-141 0 -232.5 -29.5t-144.5 -68.5t-73.5 -78t-20.5 -55z" />
<glyph unicode="Q" horiz-adv-x="1148" d="M-166 -33q0 2 5 22.5t34 43t94.5 41t184.5 18.5q43 0 96 -8q47 -6 111.5 -17.5t144.5 -29.5q139 88 244.5 209t177 251t108.5 258t37 232q0 109 -48 174.5t-169 65.5q-100 0 -209.5 -70t-202 -181.5t-153 -251.5t-60.5 -282q0 -27 4.5 -61.5t18.5 -65t42 -51t75 -20.5 q4 0 44 7t93 45t108.5 120t90.5 229q2 2 4 6q4 6 12 6q10 0 18 -18q4 -8 6 -18t3.5 -22.5t1.5 -29.5q0 -59 -32 -130.5t-89.5 -133t-136 -102.5t-173.5 -41q-63 0 -105 19.5t-65.5 53t-33 77.5t-9.5 91q0 106 33 215t90.5 208.5t133 186.5t160.5 151.5t174 101.5t173 37 q53 0 109.5 -11.5t101.5 -44.5t74 -92t29 -156q0 -129 -36 -248.5t-91.5 -224t-123 -192.5t-133 -153.5t-119.5 -108.5t-83 -58q178 -49 335 -109.5t303 -112.5t290.5 -88t298.5 -36q49 0 116.5 6.5t141.5 23.5t149.5 49t143.5 85q2 0 6 2q8 4 12 4q12 0 16 -8q3 -4 3 -6 q0 -18 -35 -59t-105.5 -83t-180.5 -74t-261 -32q-180 0 -352 50t-335 117t-316.5 132.5t-299.5 95.5q-84 -45 -188 -80.5t-225 -35.5q-25 0 -72 4t-93 16t-81 33.5t-35 58.5zM-59 -25q0 -41 53 -52t131 -11q53 0 105.5 12.5t97.5 28.5q53 18 100 41q-133 29 -213 34t-94 5 q-66 -2 -101.5 -11.5t-54.5 -19.5q-23 -12 -24 -27z" />
<glyph unicode="R" horiz-adv-x="1144" d="M-205 776q0 53 32 114.5t88 124t133 121t165 103.5t183.5 72.5t191.5 27.5q37 0 77 -7t73.5 -26.5t55 -53t21.5 -87.5q0 -35 -2 -68.5t-8 -78.5q53 35 111.5 72.5t120 68.5t125 50.5t126.5 19.5q27 0 52.5 -5t47 -18.5t36 -37t14.5 -60.5q0 -25 -13.5 -85t-73 -138 t-181 -165t-336.5 -167q-2 0 -5 -2q-6 -6 -6 -12q0 -2 5.5 -39t19.5 -98.5t39.5 -138.5t65.5 -156.5t97.5 -156.5t134.5 -137.5t177 -97.5t225 -37q37 0 96.5 7.5t128 26t137 52t124.5 86.5q4 4 12 11q14 10 24 10q9 -2 9 -18q0 -53 -46.5 -99.5t-119 -80t-162.5 -53 t-180 -19.5q-152 0 -271.5 41t-213 107.5t-161 152.5t-114.5 176q-113 211 -152 477q0 20 13 29q6 4 12 4q195 53 312.5 126.5t182 144.5t86 128t21.5 80q0 45 -25.5 61.5t-62.5 16.5q-55 0 -113.5 -20.5t-117 -53.5t-114.5 -73t-110 -80q-12 -53 -50 -148.5t-93 -208 t-122.5 -229.5t-140.5 -211t-145.5 -154.5t-136.5 -60.5q-29 0 -43 13t-14 63q0 70 48 182t135 243.5t206 267.5t260 253q10 25 19 55q6 27 11 59.5t5 67.5q0 51 -18.5 83t-45 48t-57.5 22.5t-57 6.5q-68 0 -143.5 -22.5t-148.5 -59.5t-138.5 -85t-115.5 -100.5t-80 -103.5 t-30 -96q0 -29 11.5 -45.5t27 -23.5t32.5 -9t30 -2q51 0 103 20.5t97 44.5q53 29 101 66q2 4 6 6q8 4 14 4t10 -4q2 0 3 -2v-10q0 -37 -34 -76t-85 -71.5t-112.5 -53t-115.5 -20.5q-33 0 -65.5 8t-58 25.5t-41 46t-15.5 69.5zM135 59q0 -14 4 -17t8 -3q20 0 48 27.5t57 60.5 q33 37 65 86q115 174 193 320t125 255q-111 -104 -193 -206.5t-139 -184.5q-68 -96 -113 -182q-35 -68 -45 -103.5t-10 -52.5z" />
<glyph unicode="S" horiz-adv-x="1157" d="M-121 109q0 78 46 151.5t123 131t175.5 92t202.5 34.5q16 0 55 -4t80 -19.5t73 -47t32 -89.5q0 -57 -27 -108t-61.5 -89t-71.5 -60.5t-60 -22.5t-22 12q0 6 4 14q2 4 4 7q47 49 84 106t37 113q0 35 -14.5 56.5t-35 32.5t-45 15t-42.5 4q-129 0 -211 -41t-128 -95 t-63.5 -108.5t-17.5 -80.5q0 -72 40 -112t92 -58.5t104.5 -22.5t74.5 -4q131 0 247 45t202 114.5t136 153.5t50 160q0 63 -42 107.5t-103.5 78t-135 63.5t-135 65.5t-103.5 81.5t-42 114q0 45 21.5 85t46.5 69q29 35 65 63q-51 51 -62.5 95t-11.5 73q0 16 6.5 35.5t17.5 38 t26.5 31t33.5 12.5q6 0 11.5 -3t5.5 -18q0 -10 -6.5 -32.5t-6.5 -42.5q0 -23 10.5 -60t47.5 -78q113 72 222.5 94.5t190.5 22.5q86 0 139.5 -13.5t84 -31.5t41 -41t10.5 -41q0 -55 -34 -90t-86 -56.5t-111.5 -29.5t-112.5 -8q-98 0 -193.5 26.5t-150.5 61.5 q-35 -29 -56.5 -61.5t-21.5 -73.5q0 -51 41 -87t103.5 -67t135 -60.5t135 -68.5t103.5 -92t41 -133q0 -84 -58.5 -184.5t-163 -188.5t-249.5 -146.5t-322 -58.5q-61 0 -130.5 14.5t-128 46t-97.5 83t-39 125.5zM657 1110q41 -18 84 -35q37 -14 84 -24.5t97 -10.5 q68 4 120 17q45 10 82 31.5t37 60.5q0 6 -4 17.5t-19.5 21.5t-45 17t-82.5 7q-76 0 -140.5 -15t-111.5 -36q-55 -23 -101 -51z" />
<glyph unicode="T" horiz-adv-x="1134" d="M-125 922q0 43 38 109.5t115.5 130t196.5 109.5t281 46q18 0 57 -4t92.5 -21.5t118 -50.5t133.5 -92q53 25 80 37q16 8 31 10q14 6 24.5 7t16.5 1q12 0 16 -4l4 -4q4 -4 4 -6q0 -4 -8 -12q-4 -4 -8 -7q-12 -6 -31 -14q-16 -8 -36.5 -19.5t-47.5 -27.5q86 -80 177.5 -131 t201.5 -51q27 0 67 5t83 20.5t84 44t71 75.5q2 4 6 8q6 6 17 6q6 0 10 -12q2 -6 2 -12q0 -10 -6 -27.5t-29 -42.5q-39 -45 -86 -70.5t-91 -38t-82 -14.5t-60 -2q-70 0 -125 8.5t-107.5 28t-104.5 55t-118 91.5q-86 -63 -191.5 -161.5t-201.5 -236.5q27 -6 54.5 -10t54.5 -4 q31 0 37 4t20 4q12 0 12 -12q0 -16 -16.5 -27.5t-39 -18.5t-46 -10.5t-37.5 -3.5q-43 0 -84 11q-47 -72 -84 -150q-33 -66 -58.5 -147.5t-25.5 -161.5q0 -41 9 -79t29.5 -67.5t54.5 -49t85 -21.5q-2 12 -2 24.5v24.5q0 160 55.5 285t133 210t161.5 130t142 45 q41 0 65.5 -14.5t38.5 -38t19.5 -51t5.5 -54.5q0 -84 -27 -159.5t-71 -141.5t-100 -120t-113.5 -95t-110.5 -67.5t-94 -34.5q10 -66 38.5 -101t53.5 -51l6 -6q6 -6 6 -12q-4 -12 -31 -13q-49 0 -80.5 25.5t-50.5 56.5q-23 37 -33 84h-26q-98 0 -156.5 37t-89.5 86t-39 100.5 t-8 77.5v13q1 83 25 161q26 84 61 152q39 80 90 149q-16 2 -29.5 3t-27.5 1q-59 0 -103.5 -11t-72.5 -27q-35 -18 -60 -41q-10 -10 -20 -11q-12 0 -13 15q0 12 3 16l4 8q25 39 63 68q35 25 87 45t124 20q23 0 47.5 -2t50.5 -8q113 152 234 250t219 158q-57 55 -114.5 84.5 t-106.5 45t-84 18.5t-47 3q-113 0 -202 -31.5t-148.5 -77.5t-91 -96.5t-31.5 -87.5q0 -27 12 -44t30.5 -25t41 -11.5t43.5 -3.5q61 0 120.5 24t106.5 52q55 33 106 74l9 8q6 6 16 6t10 -14q0 -18 -29.5 -57t-85 -77t-134 -68t-177.5 -30q-92 0 -135 40t-43 94zM520 -8v-36.5 t4 -39.5q66 10 142.5 60.5t142 125t111 166t45.5 183.5q0 43 -14.5 74.5t-71.5 31.5q-63 0 -127 -50t-115 -130t-84 -181.5t-33 -203.5z" />
<glyph unicode="U" horiz-adv-x="1101" d="M-215 727q0 55 31.5 118.5t87 126t130.5 119t161 99.5t179 68.5t185 25.5q25 0 55.5 -4t57 -16.5t45 -35t18.5 -59.5q0 -51 -40 -129.5t-99 -172t-128 -196t-128 -199.5t-99 -184t-40 -153q0 -23 11 -41t48 -18t100.5 35.5t138 91t152.5 123t146 131.5q47 164 109.5 293 t119.5 221q68 106 135 188q51 66 95 103.5t79 59t61.5 28t43.5 6.5q35 0 52 -19.5t17 -52.5q0 -49 -30.5 -114.5t-80.5 -138.5t-114.5 -147.5t-129 -146t-126 -134t-106.5 -107.5q-18 -57 -33 -123q-12 -55 -23.5 -122t-11.5 -132q0 -37 5 -77t17.5 -78t36 -71.5t60.5 -54.5 q4 -2 8 -6q6 -6 6 -12q0 -4 -2 -6q-4 -2 -10 -7q-8 -6 -29 -6q-51 0 -89 32t-63.5 80t-38 107.5t-12.5 114.5q0 43 5.5 82t9.5 68q6 35 12 63q-106 -106 -213 -188q-45 -35 -95 -69t-101.5 -60.5t-101.5 -43t-95 -16.5q-27 0 -44.5 11.5t-27.5 30t-15 40t-5 41.5 q0 84 40 182.5t99 201t129 202.5t129 189t99 160t40 114q0 41 -32.5 54t-67.5 13q-66 0 -136.5 -20.5t-139 -54t-130 -77.5t-108.5 -91t-75 -95.5t-28 -89.5t29 -61.5t80 -20.5q47 0 127 28t174 122q2 4 6 6q8 4 12 4q10 0 11 -12q0 -39 -40 -84t-97.5 -84t-122 -63.5 t-113.5 -24.5q-90 0 -131 38t-41 97zM975 635q68 70 146.5 160t147 177t115 160.5t46.5 110.5q0 20 -23 21q-4 0 -30.5 -14.5t-86.5 -86.5q-55 -70 -110 -151q-47 -72 -102.5 -167t-102.5 -210z" />
<glyph unicode="V" horiz-adv-x="1075" d="M-145 676q0 61 31.5 131t84 137.5t121 131t143 110.5t150.5 75.5t141 28.5q84 0 131.5 -50t47.5 -167q0 -80 -14.5 -176t-37 -194.5t-48 -191.5t-48 -166t-37 -118t-14.5 -47q0 -14 8 -14t21 18q90 104 186 209q82 90 180 193.5t195 195.5q-31 51 -31 115q0 84 38 169 t104.5 153.5t156.5 110.5q86 40 183 40h9q45 0 59.5 -23.5t14.5 -48.5q0 -31 -17.5 -67.5t-47 -78.5t-66.5 -84t-76 -81q-92 -92 -209 -188q20 -23 41 -34t39 -17q23 -8 41 -11q14 -2 15 -12q0 -14 -10.5 -22.5t-23.5 -12.5t-26.5 -5t-21.5 -1q-29 0 -52.5 6t-39.5 17 q-20 10 -35 22q-166 -154 -301 -308.5t-234 -279.5q-113 -145 -203 -282q-12 -33 -24 -42.5t-21 -9.5q-18 0 -29.5 10.5t-18.5 24t-10 26.5t-3 19q0 16 2 23q2 6 2 10q109 299 167 511t87 353q33 164 37 275q0 45 -11.5 72.5t-27.5 44t-37.5 22.5t-42.5 6q-68 0 -156 -47 t-167.5 -117.5t-134 -152.5t-54.5 -150q0 -65 74 -65h2q23 0 54.5 6t72.5 23.5t91 50t105 86.5q0 2 5 4q4 2 14 2q14 0 14 -15q0 -33 -37 -78.5t-94 -87.5t-125.5 -72t-130.5 -30q-86 0 -118.5 26.5t-32.5 88.5zM1169 924q0 -35 11 -66q94 84 170 160q33 33 63.5 66.5 t54 64.5t38 57.5t14.5 44.5q0 23 -14.5 29t-28.5 6q-57 0 -112.5 -38t-98.5 -93t-70 -117.5t-27 -113.5z" />
<glyph unicode="W" horiz-adv-x="1605" d="M-229 676q0 55 28.5 120.5t77.5 133t115.5 131t142.5 114t156 80t158 29.5q35 0 66.5 -7t54 -28.5t35.5 -61.5t13 -106q0 -80 -16 -182t-39.5 -206.5t-51.5 -205t-51.5 -179.5t-40 -127t-16.5 -50q0 -14 7 -14q4 0 10 4q12 8 22 20q63 68 133 140q59 61 136 138t155 152 q0 14 7.5 60.5t21.5 108t40 130t62.5 126t87 94t115.5 36.5q41 0 55.5 -26.5t14.5 -61.5q0 -68 -26.5 -129t-68.5 -117.5t-94.5 -109.5t-103.5 -102q-14 -94 -23.5 -219t-9.5 -300q0 -4 2 -10q4 -12 8 -12q6 0 15 12q66 96 149.5 196.5t164.5 190.5t149.5 162t105.5 109 q-18 31 -26.5 63.5t-8.5 65.5q0 94 43 183t108.5 157.5t144.5 109.5t151 41q51 0 67.5 -23.5t16.5 -52.5q0 -39 -26 -90t-65.5 -106.5t-86 -109.5t-88.5 -99t-73.5 -76t-39.5 -41q10 -12 25.5 -22.5t34 -16.5t35.5 -10t30 -4q16 0 16 -10q0 -23 -32.5 -35t-59.5 -12 q-61 0 -121 38q-66 -66 -155 -159.5t-181 -203.5t-177 -227.5t-142 -230.5q-14 -27 -29 -35q-8 -4 -14 -4q-20 0 -32.5 10.5t-19 23.5t-8.5 26.5t-2 17.5q2 193 11.5 337t19.5 253q-164 -158 -267.5 -271.5t-162.5 -189.5q-70 -88 -105 -147q-16 -31 -29.5 -40t-21.5 -9 q-23 0 -39 24.5t-16 52.5q0 16 2 23q2 6 2 10q109 299 167 511t87 353q33 164 37 275q0 45 -11.5 72.5t-27.5 44t-37.5 22.5t-42.5 6q-51 0 -108.5 -23.5t-114.5 -61.5t-109.5 -87t-93.5 -101t-64.5 -102.5t-23.5 -91.5q0 -37 18.5 -51t59.5 -14q20 0 53 6t74 23.5t91 50 t105 86.5q2 2 7 4q4 2 12 2q12 0 12 -15q0 -29 -34.5 -74.5t-92 -88.5t-130.5 -74t-148 -31q-78 0 -104.5 33t-26.5 82zM995 694q27 27 58.5 63t61.5 75.5t49.5 80.5t21.5 78q0 25 -8.5 32t-14.5 7q-33 0 -61.5 -40t-50 -94t-36 -110.5t-20.5 -91.5zM1595 872q0 -51 21 -86 q33 37 85 92.5t102 116t86 115.5t36 90q0 20 -11 27.5t-26 7.5q-43 0 -93 -32t-95 -84t-75 -116.5t-30 -130.5z" />
<glyph unicode="X" horiz-adv-x="1085" d="M-322 -16q0 12 11.5 15t15.5 3q61 0 125 16.5t126 44t121.5 61.5t110.5 71q123 84 236 190q31 29 68 66q33 31 75.5 72.5t94.5 92.5q-18 127 -50 247t-78.5 214t-107.5 150.5t-139 56.5q-61 0 -99 -35t-38 -106q0 -45 18 -96.5t54 -98.5t90.5 -87t125.5 -60l8 -4 q6 -2 7 -15q0 -8 -6.5 -11t-12.5 -7q-8 -4 -18 -4q-109 0 -176.5 45t-105.5 106.5t-51 122t-13 90.5q0 68 21.5 112t55 69.5t72.5 37t74 11.5q53 0 117.5 -22.5t129 -90t122 -193.5t98.5 -335l248 260q-35 27 -44.5 58.5t-9.5 53.5q0 29 10.5 54.5t26.5 25.5q10 0 13.5 -13 t3.5 -24q12 -59 57 -92q2 6 25.5 32t61.5 61.5t88 76.5t105.5 76t114 57.5t113.5 22.5q41 0 60.5 -22.5t19.5 -59.5q0 -47 -32 -108.5t-93.5 -117t-150.5 -93t-203 -39.5q-25 0 -37.5 1t-21.5 3t-18.5 5t-27.5 7q-59 -68 -134 -145.5t-159 -163.5q27 -104 41 -227t38 -246 t65 -233.5t122 -188.5q4 0 7 -4q4 -8 4 -15q0 -12 -31 -12q-74 0 -125 42t-86 109.5t-55.5 154.5t-34.5 179.5t-23.5 181.5t-21.5 158q-47 -45 -87 -83.5t-69 -67.5q-35 -35 -63 -62q-41 -39 -109.5 -104.5t-156 -128t-185.5 -107.5t-199 -45q-61 0 -95 17.5t-34 36.5z M1135 1008q37 -12 75 -13q72 0 130.5 27t99.5 63.5t64.5 76.5t23.5 67q0 37 -37 37t-86 -28t-98.5 -68t-94.5 -84t-77 -78z" />
<glyph unicode="Y" horiz-adv-x="1263" d="M-139 653q0 45 27.5 101.5t76.5 114t117 111.5t148.5 96t171 67.5t184.5 25.5q100 0 146 -46t46 -119q0 -80 -45 -164t-100 -165t-100.5 -157t-45.5 -141q0 -18 11.5 -38t52.5 -20q66 0 125 18.5t106 41.5q53 27 103 59q12 29 37.5 90.5t60.5 136t79 153.5t96 143.5 t112.5 105.5t126.5 41q35 0 51 -19.5t16 -48.5q0 -59 -49 -143t-120.5 -169t-150.5 -160.5t-138 -118.5q-12 -25 -21.5 -47.5t-22 -53.5t-32 -73t-49.5 -107q66 -6 122 -38t99 -79t67.5 -105.5t24.5 -115.5q0 -10 -6 -14t-12 -4q-10 0 -11 8q-14 37 -38.5 83t-62.5 87 t-92 70.5t-130 31.5q-92 -178 -205 -319q-49 -59 -106.5 -116.5t-124 -103t-139 -73t-150.5 -27.5q-70 0 -124 32t-54 112q0 61 35.5 127.5t96 130t142.5 122t173 101.5t188.5 68.5t189.5 25.5q29 53 43 88t35 84q-51 -29 -109 -51q-49 -20 -110.5 -35.5t-122.5 -15.5 q-78 0 -113 32.5t-35 83.5q0 43 23.5 96.5t58.5 112t76 120t76 119.5t58.5 110.5t23.5 93.5q0 33 -19.5 63.5t-73.5 30.5q-129 0 -240.5 -48t-193.5 -113.5t-129 -133.5t-47 -107q0 -31 25.5 -43t60.5 -12q23 0 53.5 5t69.5 19.5t84 42t94 72.5l4 5q4 4 11 4q16 0 16 -19 q0 -27 -33 -66.5t-86 -76.5t-119.5 -63.5t-132.5 -26.5q-74 0 -112.5 25.5t-38.5 84.5zM53 -387q0 -33 7.5 -51.5t18.5 -27.5t27.5 -11t34.5 -2q55 0 108.5 24.5t105 65.5t99.5 92t89 107q98 126 182 288q-106 0 -225 -42t-218.5 -109.5t-164 -154.5t-64.5 -179zM1059 584 q0 -4 4 -4q6 0 32.5 24.5t61.5 62.5t74 86t71.5 94t54 85.5t21.5 62.5q0 8 -4 15.5t-16 7.5q-27 0 -59.5 -27.5t-64.5 -70.5t-61.5 -94.5t-53 -99.5t-40 -86t-20.5 -54v-2z" />
<glyph unicode="Z" horiz-adv-x="1024" d="M-317 25q0 20 17 42.5t53 41t92.5 30t134.5 11.5q55 0 128.5 -8.5t167.5 -30.5q104 78 229.5 203.5t246.5 263.5q-29 4 -52.5 6t-46.5 2q-49 0 -76.5 -6.5t-44 -13.5t-26.5 -13t-23 -6q-14 0 -14 10q0 4 10 20.5t36 34t69 30.5t106 13q27 0 55.5 -2t63.5 -10 q78 88 143.5 169t114.5 142q57 72 107 136q4 4 4 10t-11 6q-53 0 -121.5 15.5t-117.5 29.5q-35 -63 -97 -115q-53 -43 -136 -79.5t-206 -36.5q-39 0 -75.5 7t-65.5 22.5t-46 40t-17 59.5q0 41 29.5 79.5t83 69.5t127 49.5t161.5 18.5q41 0 89 -6.5t99 -18.5q0 35 -10 64.5 t-51 60.5q0 2 -2 4q-4 4 -4 12t7 12.5t15 6.5t21 2q12 0 29.5 -10.5t35 -30t28.5 -48t11 -65.5q0 -20 -2 -30q8 0 32 -8.5t60.5 -17.5t81.5 -16.5t97 -7.5q33 0 65.5 5.5t61.5 15.5q2 2 4 2h10q14 0 14 -12q0 -4 -2 -13.5t-10 -19.5q-59 -78 -127 -166q-59 -76 -134 -170 t-161 -193q6 -2 27.5 -4t32.5 -2q4 0 15 1t21 1q12 0 21.5 -4t9.5 -10q0 -8 -14.5 -16.5t-36 -16.5t-47 -13t-47.5 -5h-20.5t-20.5 2q-57 -59 -97 -102t-72 -77t-62.5 -63.5t-68.5 -61.5t-88.5 -71t-123.5 -92q176 -53 346 -124t335 -134.5t323.5 -107.5t310.5 -44 q37 0 96 3.5t132 18.5t154.5 45t161.5 85q4 2 11 6q10 6 18 6q6 0 10 -8q2 -4 2 -6q0 -6 -5 -18.5t-21 -30.5q-66 -72 -156 -111t-174 -57.5t-147.5 -22.5t-75.5 -4q-129 0 -248 25.5t-231.5 66.5t-222 92.5t-222.5 101.5t-231.5 95t-249.5 72q-88 -47 -189.5 -84 t-208.5 -37q-20 0 -56 3t-69.5 14.5t-58 34t-24.5 61.5zM-197 18q0 -12 11.5 -21t27 -13t30.5 -6.5t22 -2.5q61 0 115 12.5t95 28.5q48 18 89 41q-55 16 -111.5 22.5t-97.5 6.5q-104 0 -142.5 -22.5t-38.5 -45.5zM408 1055q0 -31 29.5 -49.5t90.5 -18.5q82 0 141.5 28.5 t100.5 63.5q47 42 82 95q-8 6 -27.5 9t-43 6t-48 4t-45.5 1q-127 0 -203.5 -43t-76.5 -96z" />
<glyph unicode="[" horiz-adv-x="638" d="M-127 -119q0 2 2 2q0 14 28.5 74.5t76 151t109 203t129 232.5t137 239.5t130.5 222.5q47 78 87 140t71 107q37 53 66 90q27 25 71.5 40.5t89.5 25.5q53 10 113 18q8 0 16 -4q15 -6 15 -14t-27 -18q-35 -12 -67.5 -27.5t-59.5 -30.5q-31 -16 -55 -35q-18 -14 -57 -70.5 t-91.5 -142.5t-114 -193.5t-126 -221t-127 -227t-117.5 -212.5q-45 -80 -75.5 -143t-51.5 -106q-23 -51 -37 -88q-4 -8 -4 -15q0 -18 19.5 -42.5t44.5 -47.5q29 -27 63 -53q12 -10 12 -19q0 -10 -20 -10q-25 0 -67 17.5t-83 43t-70.5 54t-29.5 51.5v8z" />
<glyph unicode="\" horiz-adv-x="997" d="M74 1509q6 10 22 -2q51 -29 64.5 -55.5t17.5 -32.5q135 -492 244 -884q47 -168 91 -330t79 -292t58.5 -214t25.5 -96q-4 -8 -9 -12.5t-18 -0.5q-16 10 -45 33t-35 49q-106 408 -198 744t-159 576.5t-103.5 375.5t-34.5 141z" />
<glyph unicode="]" horiz-adv-x="643" d="M-236 -274q0 8 27 18q35 12 67.5 27.5t59.5 29.5q31 16 55 35q18 14 57.5 70.5t91.5 142.5t113.5 193.5t126 221.5t128 227.5t116.5 211.5q45 80 76 143.5t51 106.5q23 51 37 88q4 8 4 14q0 18 -19.5 43t-43.5 48q-29 27 -64 53q-12 10 -12 18q0 10 20 10q25 0 67 -17 t83 -43t70.5 -54.5t29.5 -50.5v-9q0 -2 -2 -2q0 -14 -28.5 -74.5t-75.5 -150.5t-108.5 -202.5t-129 -232.5t-136.5 -239t-132 -223q-47 -78 -87 -140.5t-71 -107.5q-37 -53 -65 -90q-25 -25 -71 -40t-91 -25q-53 -10 -113 -19q-8 0 -16 4q-14 6 -15 15z" />
<glyph unicode="_" horiz-adv-x="876" d="M-8 -57q0 2 2 2q0 2 9 11t27.5 20.5t48.5 20.5t68 9h408q61 0 96 1t58 5q2 2 6 2h12q14 0 14 -8q0 -6 -8 -14q-41 -45 -114.5 -55.5t-184.5 -10.5h-96q-23 0 -43 2q-106 2 -158.5 1t-75 -3t-26.5 -3t-17 -1q-27 0 -26 15v6z" />
<glyph unicode="`" horiz-adv-x="571" d="M139 1001q2 20 21 21q8 0 12 -2l4 -2q66 -41 117 -79t86 -67q41 -35 72 -63q8 -8 8 -16q0 -10 -13 -11q-35 6 -75 19q-35 10 -80 28.5t-96 49.5q-39 35 -47.5 70.5t-8.5 51.5z" />
<glyph unicode="a" d="M-53 100q0 80 48 174.5t123 175t167 134t178 53.5q35 0 63.5 -14.5t44.5 -51.5q0 -2 2 -4q4 -4 7 -4q2 0 8 8q16 33 40.5 54.5t53.5 21.5q12 0 32.5 -4t20.5 -18v-7q0 -2 -2 -2q-35 -43 -71.5 -100t-65.5 -110q-35 -61 -68 -123q-23 -41 -41 -78q-16 -33 -28.5 -70 t-12.5 -65q0 -20 9.5 -37t40.5 -17q20 0 49.5 14.5t76 54.5t113 111.5t158.5 184.5q0 2 2 4t6 2q2 0 9.5 -8.5t7.5 -24.5q0 -10 -4.5 -24.5t-20.5 -34.5q-98 -129 -178 -203t-138.5 -109.5t-94.5 -45t-44 -9.5q-61 0 -81.5 32t-20.5 71q0 47 12 78.5t12 37.5q0 4 -4 5l-4 -2 q-2 -2 -4 -3q-51 -57 -99 -89.5t-88 -50t-69 -21.5t-45 -4q-31 0 -51.5 11t-30.5 28.5t-14 38t-4 40.5zM66 119q0 -20 9 -39t40 -19q37 0 86 31t101 84t104.5 124t93.5 151q10 23 14 39t4 28q0 35 -16.5 45t-38.5 10q-49 0 -118 -48t-131 -118.5t-105 -149.5t-43 -138z" />
<glyph unicode="b" horiz-adv-x="727" d="M-428 1020q0 49 25.5 83t62.5 55.5t76 31.5t65 10q49 0 88 -12t66 -29.5t41 -35t14 -27.5q0 -12 -10 -13q-6 0 -20 9q-39 23 -84.5 32t-77.5 9q-53 0 -84 -15.5t-47.5 -34t-21.5 -37t-5 -24.5q0 -43 34 -75t92 -53.5t135 -31.5t165 -10q66 0 126 4t114 12 q49 72 107.5 147t123.5 148q53 55 107 99q47 37 101 67.5t103 30.5q41 0 63.5 -29t22.5 -74q0 -49 -29.5 -111.5t-94 -123.5t-166 -114.5t-246.5 -84.5l-2 -2q-80 -117 -163 -262t-147 -311q-12 -33 -22 -66q-10 -29 -17.5 -60.5t-7.5 -60.5q0 -25 7.5 -42t29.5 -17 q66 0 134.5 55.5t129.5 132.5q-34 50 -34 125q0 57 21.5 112.5t57 103t79.5 77t89 29.5q49 0 50 -49q0 -33 -12.5 -78t-34 -94t-52 -102.5t-67.5 -104.5q27 -20 65 -21q47 0 105.5 35t111.5 103q29 29 47 55q0 2 2 4t7 2q2 0 9 -8t7 -25q0 -10 -3 -25.5t-20 -33.5 q-72 -92 -147.5 -134t-140.5 -42q-53 0 -94 24q-80 -98 -173.5 -164.5t-181.5 -66.5q-20 0 -41 4q-8 2 -14 6q-29 14 -40 44t-11 67q0 39 8 78t18 73q12 39 27 76q29 74 70 160q35 74 88 172t125 209q-45 -6 -93.5 -8t-101.5 -2q-104 0 -197.5 14t-164 43t-111.5 72t-41 100 zM408 350q0 -51 10 -80q53 82 86 153.5t33 100.5q0 27 -13 27q-18 0 -38.5 -18.5t-38 -47t-28.5 -64.5t-11 -71zM473 901q115 33 191.5 79t125 95t69 95t20.5 77q0 43 -29 43q-20 0 -46 -16.5t-50 -36.5q-29 -23 -58 -55q-14 -14 -37.5 -42t-53.5 -65t-63.5 -81t-68.5 -93z " />
<glyph unicode="c" horiz-adv-x="595" d="M-45 115q0 76 41 170t109.5 176t155.5 138t179 56q37 0 59.5 -8t35 -22.5t15.5 -29.5t3 -32q0 -51 -22.5 -90t-56.5 -64.5t-71.5 -38t-68.5 -12.5q-35 0 -49.5 7.5t-14.5 15.5q0 4 9 8q4 2 6 2q39 4 70.5 22.5t55 44t36 53.5t12.5 50q0 23 -7.5 29t-27.5 6 q-57 0 -119.5 -52t-115 -127t-85 -156t-32.5 -138q0 -66 28.5 -86.5t71.5 -20.5q111 0 225.5 88.5t266.5 282.5q0 2 2 4t4 2q4 0 9 -8.5t5 -24.5q0 -10 -4 -25.5t-18 -35.5q-45 -63 -106.5 -128t-131.5 -116t-142.5 -82.5t-140.5 -31.5q-29 0 -61.5 4t-60 21.5t-46 52 t-18.5 96.5z" />
<glyph unicode="d" horiz-adv-x="819" d="M-57 96q0 78 43 170t112.5 172t159.5 134.5t184 54.5q35 0 66 -13.5t47 -50.5l2 -2q4 -4 6 -4q6 0 8 6q35 53 66 101q27 41 50.5 77.5t29.5 51.5h-29q-233 0 -363 81.5t-130 241.5q0 72 30.5 122t75.5 81t96.5 45t91.5 14q90 0 159 -29.5t116 -82t71.5 -122t24.5 -147.5 q0 -35 -4 -66.5t-10 -60.5q76 4 170 33t184 72t165 92t112 92q2 6 8 10q12 8 18 9q8 -1 8 -15q0 -20 -57 -74.5t-152.5 -114t-221.5 -110.5t-261 -67q-4 -14 -19.5 -44t-38 -69t-49 -85t-55.5 -91q-66 -106 -145 -234q-20 -39 -39 -75q-16 -33 -28.5 -69t-12.5 -67 q0 -18 8.5 -36.5t36.5 -18.5q57 0 151.5 90t250.5 283l2 2q2 2 4 2q4 0 8 -9t4 -26q0 -12 -5 -28.5t-22 -38.5q-102 -133 -180 -205t-132 -105.5t-86 -40t-42 -6.5q-59 0 -79.5 37t-20.5 78q0 39 8 68.5t10 33.5q0 6 -4 7q-2 0 -6 -5q-51 -59 -101.5 -93t-90.5 -51 t-67.5 -21.5t-31.5 -4.5q-33 0 -53.5 11.5t-31.5 29t-15 39t-4 41.5zM55 111q0 -16 7.5 -33t33.5 -17q43 0 90 28t92.5 70t85 94t70.5 101t49.5 90.5t18.5 61.5q-4 37 -20.5 49t-45.5 12q-45 0 -109.5 -47t-125 -116.5t-103.5 -148.5t-43 -144zM283 1130q0 -88 45 -142 t106.5 -81.5t127 -37t108.5 -9.5h33.5t44.5 4q24 74 24 140q0 68 -23.5 125t-63.5 99t-91 64.5t-109 22.5q-27 0 -61.5 -10.5t-66 -33t-53 -57t-21.5 -84.5z" />
<glyph unicode="e" horiz-adv-x="636" d="M-23 117q0 98 44.5 193.5t113 171t150.5 121.5t157 46q43 0 73 -20.5t30 -75.5q0 -49 -32 -107.5t-89 -109.5t-134 -87t-167 -40q-2 2 -4 0l-4 -8q-16 -47 -17 -88q0 -33 9.5 -54.5t24.5 -33t33.5 -15.5t35.5 -4q37 0 84 13.5t108.5 53.5t136 111.5t164.5 190.5q2 4 4 6 q4 4 9 4q4 0 10 -7.5t6 -23.5q0 -10 -9 -31.5t-24 -41.5q-33 -49 -90 -109.5t-128 -114t-149.5 -90.5t-156.5 -37q-25 0 -57.5 5.5t-61.5 23.5t-49.5 55t-20.5 103zM139 274q0 -4 2 -6l2 -2q55 6 111.5 37t102.5 72t75 90t29 92q0 12 -9.5 21.5t-25.5 9.5q-39 0 -85 -37 t-88 -87t-72.5 -103.5t-41.5 -86.5z" />
<glyph unicode="f" horiz-adv-x="634" d="M-446 -721q0 74 33.5 180.5t90 229.5t129 258t148.5 266t150.5 252t134.5 217q8 14 15 26.5t15 24.5q-43 8 -80 27q-31 16 -56 42.5t-25 67.5q0 23 9 39.5t22.5 26.5t25.5 15t18 5q14 0 15 -12q0 -8 -2 -10t-2 -4q-6 -18 -7 -37q0 -29 15.5 -47.5t35 -29.5t41 -15 t33.5 -4q55 82 124 171t143.5 162.5t150.5 121.5t143 48q31 0 53.5 -15t22.5 -56t-21.5 -91.5t-59.5 -104.5t-90 -105t-113.5 -93t-131 -70t-141.5 -34q-6 -10 -13 -19.5t-13 -19.5q-41 -68 -101.5 -165t-128.5 -212q33 23 69 37.5t73 14.5q57 0 73.5 -33t16.5 -68 q0 -41 -17.5 -100.5t-46.5 -134.5q88 29 183.5 115.5t213.5 240.5q0 2 3 4q2 2 4 2q4 0 9 -8t5 -25q0 -10 -4 -25.5t-19 -35.5q-37 -53 -87 -106.5t-105 -100.5t-115.5 -83t-120.5 -54q-57 -125 -137 -262t-168 -252t-176 -189.5t-162 -74.5q-41 0 -58 30.5t-17 71.5z M-328 -672q0 -41 27 -41q37 0 98.5 61.5t131 158t139 211t120.5 223.5h-8q-100 0 -142 37.5t-44 93.5q-63 -111 -121.5 -220.5t-102.5 -208t-71 -180t-27 -135.5zM78 123q0 -43 29.5 -75t103.5 -32h12q29 66 46.5 120t17.5 91q0 31 -16.5 50.5t-55.5 19.5q-27 0 -51.5 -16.5 t-44 -41t-30.5 -55t-11 -61.5zM444 805q49 2 120 43t137.5 100.5t113.5 125t47 116.5q0 27 -22 27q-16 0 -41 -14.5t-47 -33.5q-25 -23 -54 -49q-33 -33 -71 -80q-35 -41 -81 -99t-102 -136z" />
<glyph unicode="g" horiz-adv-x="702" d="M-412 -688q0 63 43 142t121 155t185.5 137t238.5 92q31 55 57.5 104.5t46 87.5t31 61.5t11.5 25.5q0 6 -5 6l-6 -4q-53 -49 -99 -77t-81 -42q-41 -16 -76 -18q-66 0 -90 28.5t-24 87.5q0 63 39.5 154.5t110.5 174.5t165 142.5t203 59.5q35 0 64.5 -13.5t41.5 -50.5l2 -2 q4 -4 6 -4q4 0 11 6q6 12 14 23q6 10 13 19t16 16q12 10 26.5 14t26.5 4q51 0 51 -16q0 -6 -2 -9l-2 -2q-35 -43 -73 -100t-68 -111q-37 -61 -70 -122q-23 -39 -45 -80q-20 -35 -45 -81t-49 -93l-23 -45q-10 -23 -25.5 -52.5t-35.5 -64.5q59 10 130 16t181 6q43 0 117 -13 t144.5 -44t121.5 -83t51 -132q0 -33 -9 -45t-15 -12q-14 0 -23 16q-4 8 -4 16q-25 80 -86 128.5t-135 73t-148.5 31.5t-123.5 7q-70 0 -122.5 -6t-111.5 -17q-49 -90 -117.5 -194.5t-145.5 -195.5t-159 -151.5t-157 -60.5q-35 0 -64 23.5t-29 83.5zM-322 -659q0 -16 7.5 -35 t27.5 -19q25 0 55.5 20.5t65.5 54.5t70 78t69 89q80 107 164 244q-100 -35 -184 -88.5t-145.5 -113.5t-95.5 -120.5t-34 -109.5zM53 115q0 -16 8.5 -32.5t34.5 -16.5q37 0 82 25.5t91 66.5t89 92t76 100t53.5 94t20.5 72q0 55 -55 55q-51 0 -120 -46t-131.5 -115.5 t-105.5 -148.5t-43 -146z" />
<glyph unicode="h" horiz-adv-x="808" d="M-408 1024q0 49 26 83t62.5 55.5t75.5 31.5t66 10q49 0 88 -12t65.5 -29.5t41 -35t14.5 -27.5q0 -12 -11 -13q-6 0 -20 9q-39 23 -84 32t-78 9q-53 0 -83.5 -15.5t-47 -34t-21.5 -37t-5 -24.5q0 -43 33.5 -74.5t92 -53t135 -32t164.5 -10.5q66 0 126.5 4t113.5 12 q49 72 107.5 147t124.5 148q53 55 106 99q47 37 101.5 67.5t103.5 30.5q41 0 63.5 -28.5t22.5 -73.5q0 -49 -30 -112t-94.5 -124t-165.5 -114.5t-247 -84.5l-4 -4q-27 -37 -57.5 -86t-61 -101t-60.5 -104.5t-52.5 -93.5t-35.5 -67.5t-13 -28.5q0 -6 4 -6t10 8q74 68 143 121 q59 45 126 82t120 37q4 0 15.5 -2t21.5 -9.5t18.5 -20.5t8.5 -38q0 -45 -30 -107.5t-67 -127t-66.5 -124t-29.5 -100.5q0 -35 35 -35q10 0 28.5 4.5t43.5 18.5q31 16 81 59q43 37 110 108t163 191l4 5q2 2 6 2l4 -5q2 -2 4 -6q4 -8 4 -20t-6 -29.5t-22 -40.5 q-66 -90 -140.5 -164.5t-126.5 -113.5q-82 -61 -130 -75.5t-80 -14.5q-59 0 -79 27.5t-20 60.5q0 49 30 112.5t65.5 127t65.5 117.5t30 83q0 12 -6 14q-4 2 -7 2q-49 0 -122.5 -52t-151.5 -130t-147.5 -168t-106.5 -166q-4 -10 -12 -14t-13 -4q-39 0 -45 19.5t-6 33.5 q0 12 29 82t83 179.5t132 249.5t176 292q-45 -6 -93 -8t-102 -2q-104 0 -197 14t-164 43t-112 72t-41 100zM494 905q115 33 191.5 79t124.5 95t68.5 95t20.5 77q0 43 -29 43q-20 0 -45.5 -16t-50.5 -37q-29 -23 -57 -55q-14 -14 -38 -42t-53.5 -65t-63.5 -81t-68 -93z" />
<glyph unicode="i" horiz-adv-x="434" d="M-86 23q0 72 41 162.5t90 172.5q57 96 129 195q6 10 21 18q12 6 31.5 11.5t54.5 5.5q18 -2 18 -15q0 -4 -4 -12q-25 -39 -71 -107.5t-91 -143t-79 -145.5t-34 -116q0 -14 6.5 -30.5t34.5 -16.5q10 0 25.5 2t41.5 14.5t60.5 37t79.5 69.5q25 23 48.5 47.5t50 55t58.5 67.5 t71 86q0 2 2 4t4 2t6 -4l6 -6q6 -7 6 -23q0 -10 -5 -24.5t-19 -34.5q-43 -57 -103.5 -124t-126 -122t-134.5 -92t-128 -37q-53 0 -71.5 32t-18.5 71zM301 768q0 23 11.5 46.5t27.5 41.5t36.5 28.5t39.5 10.5q20 0 31.5 -13.5t11.5 -33.5q0 -10 -8.5 -31.5t-22.5 -43 t-35.5 -37t-50.5 -15.5q-41 0 -41 47z" />
<glyph unicode="j" horiz-adv-x="323" d="M-825 -688q0 63 43 142t120.5 155t185 137t238.5 92q31 51 79 142.5t106.5 199t123 218t126.5 198.5q8 10 20 18q10 6 28.5 11.5t47.5 5.5q20 0 24.5 -3t4.5 -12v-8q0 -2 -3 -2q-20 -29 -53 -81t-70.5 -117.5t-79.5 -139t-82 -145.5t-76 -138.5t-62 -115.5q29 6 58.5 9 t63 5t75.5 3t97 1q43 0 117 -13t144.5 -44t122 -83t51.5 -132q0 -33 -9.5 -45t-15.5 -12q-14 0 -22 16q-4 8 -5 16q-25 80 -86 128.5t-134.5 73t-148.5 31.5t-124 7q-35 0 -62.5 -1t-52 -4t-49.5 -6t-55 -9q-49 -90 -120 -196t-150.5 -196t-163.5 -151.5t-160 -61.5 q-35 0 -63.5 23.5t-28.5 83.5zM-735 -659q0 -16 7 -35t28 -19q27 0 58.5 20.5t66 54.5t70.5 78t69 89q78 107 160 244q-100 -35 -184.5 -88.5t-146 -113.5t-95 -120.5t-33.5 -109.5zM303 799q0 23 11.5 46t27.5 41.5t36.5 29t39.5 10.5q20 0 31.5 -13.5t11.5 -33.5 q0 -10 -8.5 -32t-22.5 -43.5t-35.5 -36.5t-50.5 -15q-41 0 -41 47z" />
<glyph unicode="k" horiz-adv-x="786" d="M-393 1024q0 49 25.5 83t62.5 55.5t76 31.5t65 10q49 0 88 -12t65.5 -29.5t41 -35t14.5 -27.5q0 -12 -10 -13q-6 0 -21 9q-39 23 -84 32t-77 9q-53 0 -84 -15.5t-47.5 -34t-21.5 -37t-5 -24.5q0 -43 33.5 -74.5t92 -53t135.5 -32t165 -10.5q66 0 126 4t113 12 q49 72 107.5 147t124.5 148q53 55 106 99q47 37 101.5 67.5t103.5 30.5q41 0 63.5 -28.5t22.5 -73.5q0 -49 -29.5 -112t-94 -124t-166 -114.5t-246.5 -84.5q-66 -94 -122.5 -183t-84.5 -152v-5q0 -2 2 -4q4 0 39 29t87 62.5t116.5 62.5t127.5 29q31 0 60 -10.5t29 -51.5 q0 -33 -24 -70.5t-72 -73.5t-120.5 -65.5t-168.5 -46.5q-4 0 -9 -2q-10 -4 -10 -10l6 -41t22.5 -90t46.5 -90t75 -41q20 0 58 9t97 54q27 18 52.5 42t55 54.5t64.5 71.5t78 94q2 4 4 7q4 4 8 4q2 0 7 -4q4 -2 8 -7q6 -6 6 -22q0 -23 -25 -55q-92 -121 -172 -188.5 t-140 -100.5t-99 -40t-49 -7q-33 0 -61 16t-49.5 43t-36.5 60.5t-28 68.5q-27 82 -38 188q0 16 -9 17q-6 0 -10 -6q-2 -4 -4 -6q-57 -98 -116.5 -209t-119.5 -232l-4 -8q-4 -8 -14 -8q-16 0 -38.5 22.5t-22.5 47.5q0 14 2 20t4 8q66 127 139 262q63 117 145 257.5t170 277.5 q-45 -6 -93 -8t-101 -2q-104 0 -197.5 14t-164 43t-111.5 72t-41 100zM287 418q0 -10 22 -10q61 2 113.5 20t90.5 44t59.5 53.5t21.5 45.5q0 16 -14.5 19.5t-18.5 3.5q-37 0 -84 -25.5t-89 -57.5t-71.5 -59.5t-29.5 -33.5zM508 905q115 33 191.5 79t124.5 95t68.5 95 t20.5 77q0 43 -28 43q-20 0 -46 -16t-51 -37q-29 -23 -57 -55q-14 -14 -37.5 -42t-53.5 -65t-63.5 -81t-68.5 -93z" />
<glyph unicode="l" horiz-adv-x="548" d="M-27 74q0 37 6.5 72.5t16.5 64.5q10 35 22 65q18 45 41 99q20 47 51 112.5t74 143.5q-45 8 -82 24q-31 14 -57.5 41t-26.5 70q0 29 11.5 45t25 25.5t24.5 12.5t13 3q20 0 21 -14v-7q0 -2 -2 -2q-14 -29 -15 -51q0 -31 19.5 -48t42.5 -28q27 -10 59 -16q115 197 229 352 q49 66 103.5 129.5t109 112.5t106.5 79t99 30q43 0 63.5 -26t20.5 -69q0 -49 -23.5 -114.5t-66.5 -136t-101.5 -140t-130 -128t-152.5 -97.5t-167 -49q-47 -84 -91 -173t-83 -186q-12 -29 -20 -59q-8 -27 -14.5 -56.5t-6.5 -58.5q0 -37 14.5 -59.5t53.5 -22.5q20 0 52 10.5 t79 38.5q35 20 86 66q43 39 105.5 104.5t146.5 169.5l2 3q2 2 6 2q2 0 6 -5q4 -2 8 -6q6 -6 6 -22q0 -20 -24 -53q-80 -104 -157 -177t-132 -112q-96 -66 -157.5 -86.5t-96.5 -20.5q-66 0 -91.5 45t-25.5 103zM344 692q72 12 137.5 50t124 91.5t106.5 115t82.5 119.5 t54 109.5t19.5 82.5q0 39 -28 38q-27 0 -62 -25.5t-74.5 -68.5t-81.5 -97t-83 -112q-94 -133 -195 -303z" />
<glyph unicode="m" horiz-adv-x="1601" d="M27 309q0 8 1 17.5t7 21.5q25 37 79 95.5t121.5 114.5t139 96t133.5 40q41 0 57.5 -21.5t16.5 -49.5q0 -37 -16.5 -79t-39 -83t-45 -76t-35.5 -57q0 -2 -2 -6q-4 -8 -4 -13q0 -4 4 -4t13 6q4 4 26.5 25.5t57 52.5t79 65.5t89.5 64.5t88 49.5t75 19.5q23 0 41.5 -12.5 t18.5 -51.5q0 -18 -3 -35.5t-10.5 -42t-20.5 -60.5t-36 -89v-2q0 -2 -1 -3t-1 -3q0 -6 4 -6t13 8l23 25q24 24 62.5 63t89 83t103.5 83t106.5 64.5t98.5 25.5q23 0 44 -11.5t21 -45.5q0 -18 -10 -64.5t-59 -140.5q-33 -61 -60 -117q-23 -47 -42 -96t-19 -78q0 -12 6 -25.5 t35 -13.5q14 0 39.5 7t67.5 38t103.5 92.5t147.5 169.5q16 18 30.5 35.5t21.5 20.5l4 2q6 0 8 -7q2 -2 4 -6q4 -8 4 -18t-6 -27.5t-23 -40.5q-145 -184 -257.5 -268t-215.5 -84q-33 0 -51 11.5t-26.5 26.5t-9.5 29.5t-1 20.5q0 37 19.5 92.5t42.5 106.5q27 59 61 123 q35 61 46 93t11 46q0 10 -2 12l-2 2q-6 6 -16 6q-29 0 -73 -26.5t-94 -67.5t-101.5 -92t-97.5 -99t-79.5 -89t-50.5 -62q-23 -29 -48 -36t-42 -7q-4 0 -7 1t-5 1h-4q-14 0 -15 12q0 6 5 15q2 4 2 6q55 115 85.5 188.5t46 117.5t18.5 61.5t3 19.5q0 20 -18 20 q-20 0 -60.5 -23.5t-89.5 -61t-103 -87t-103.5 -100.5t-90.5 -102.5t-63 -91.5q-20 -35 -50 -43.5t-46 -8.5q-20 0 -24.5 5.5t-4.5 9.5q29 82 78 172t97 172t84 148.5t36 101.5q0 16 -7.5 20t-23.5 4q-25 0 -70 -28.5t-97 -74.5t-106.5 -103.5t-99.5 -112.5q-4 -4 -9 -11.5 t-9 -7.5q-10 0 -11 16.5t-1 26.5z" />
<glyph unicode="n" horiz-adv-x="1105" d="M27 309q0 8 1 17.5t7 21.5q72 92 149 166q66 63 146 114.5t157 51.5q47 0 64.5 -20.5t17.5 -51.5q0 -49 -22.5 -100t-48 -96t-48 -78t-22.5 -43q0 -4 2 -4q8 0 14 8q4 4 29 28.5t60.5 59.5t82 74t94.5 71.5t93 54t82 21.5q23 0 44 -13t21 -52q0 -41 -22.5 -97.5t-50 -116 t-51 -112.5t-23.5 -88q0 -12 6 -25.5t31 -13.5q12 0 33.5 9t57.5 37t86 80t122 138q16 18 30.5 35.5t20.5 20.5l4 2q6 0 8 -7q2 -2 4 -6q4 -8 4 -18t-6 -27.5t-22 -40.5q-18 -23 -36 -44t-34 -42q-59 -70 -111.5 -113.5t-95.5 -68.5t-77.5 -34t-63.5 -9q-31 0 -47.5 11 t-24.5 26.5t-9 30t-1 20.5q0 45 22.5 100.5t50 110.5t50 105.5t22.5 80.5q0 16 -6 20.5t-16 4.5q-29 0 -74 -29.5t-98 -77t-109.5 -104.5t-104.5 -112.5t-85 -101.5t-51 -73q-20 -37 -50 -45t-47 -8q-18 0 -24 10q-4 6 -4 10q37 90 95 196t112 200q23 39 43 76 q16 31 29.5 63.5t13.5 52.5q0 23 -17 23q-12 0 -42 -7.5t-75 -39.5q-39 -29 -79.5 -66t-77.5 -73.5t-64.5 -67.5t-40.5 -47q-6 -6 -12 -6t-10 6q-2 4 -4 6v4q0 2 -1 5t-1 7z" />
<glyph unicode="o" horiz-adv-x="780" d="M-43 100q0 86 43 182.5t110.5 178.5t150.5 136t163 54q14 0 31.5 -3t32 -11t24.5 -23.5t10 -38.5q0 -12 -6 -16t-10 -4q-12 0 -22.5 10t-41.5 10q-51 0 -115.5 -46t-120.5 -115.5t-94 -152.5t-38 -159q0 -66 30.5 -88t65.5 -22q47 0 88 22.5t72 51.5q37 33 67 73 q-39 23 -60.5 45.5t-21.5 75.5q0 47 22.5 91t57.5 78t76 55.5t76 21.5q20 0 34.5 -12.5t14.5 -44.5q0 -31 -14.5 -74t-30.5 -84q-20 -47 -47 -98h37q31 0 65.5 9t75.5 33.5t87 68.5t99 112q2 0 4 2t7 2q12 0 16 -14q2 -9 2 -17q0 -10 -4 -23.5t-19 -31.5q-51 -66 -101 -107 t-95 -64.5t-85 -31.5t-73 -8h-30.5t-30.5 2q-39 -55 -92 -100q-45 -39 -106.5 -71t-137.5 -32q-25 0 -54.5 8.5t-54 29t-41 55t-16.5 85.5zM399 279q0 -29 12.5 -44.5t32.5 -25.5q23 39 39 76q14 33 25.5 66.5t11.5 58.5q0 16 -6 18q-4 2 -6 2q-12 0 -31.5 -10t-36 -29.5 t-29 -48.5t-12.5 -63z" />
<glyph unicode="p" horiz-adv-x="806" d="M-444 -461q0 2 2 2q18 25 45.5 70t61.5 101.5t72 119t75 123.5q86 143 184 311q66 109 116 197t85 151q41 74 71 131q10 20 36 29.5t48 9.5q33 0 33 -14q0 -6 -2 -8t-2 -4q-25 -37 -54.5 -89.5t-56.5 -99.5q-31 -55 -63 -112q-6 -8 -6 -13q0 -4 4 -4q6 0 8 2t4 2 q37 35 77 72t82 67.5t85 50t88 19.5q29 0 56.5 -18.5t27.5 -65.5q0 -18 -15.5 -68t-56.5 -128q-33 -61 -59 -117q-23 -47 -42.5 -96t-19.5 -78q0 -12 6.5 -25.5t34.5 -13.5q14 0 40 7t68 38t103.5 92.5t147.5 169.5q16 18 30.5 35.5t20.5 20.5l4 2q6 0 8 -7q2 -2 4 -6 q4 -8 4 -18t-6 -27.5t-22 -40.5q-145 -184 -258 -268t-215 -84q-33 0 -51.5 11.5t-26.5 26.5t-9 29.5t-1 20.5q0 37 19 92.5t42 106.5q27 59 61 123q47 82 61.5 120.5t14.5 44.5q0 23 -10 31t-23 8q-31 0 -72.5 -27.5t-82.5 -65.5t-77 -75.5t-54 -58.5q-47 -53 -109 -135 q-53 -72 -124.5 -182.5t-162.5 -268.5q-29 -47 -47 -78.5l-30 -52.5q-14 -23 -25 -37q-29 -49 -63.5 -63t-55.5 -14q-18 0 -23 6t-5 12v8z" />
<glyph unicode="q" horiz-adv-x="675" d="M-301 -305q0 12 25.5 49t75.5 77t128 70.5t183 30.5q23 0 44 -2t44 -6q55 92 92 145.5t37 59.5q0 4 -4 4h-7q-2 0 -2 -2q-49 -49 -93 -76t-77.5 -39t-56 -14t-27.5 -2q-33 0 -52 11t-30.5 28.5t-15.5 39t-4 42.5q0 74 41 164t110.5 168.5t159.5 132t191 53.5 q39 0 60.5 -11.5t32.5 -23.5t16 -23.5t10 -11.5q6 0 13 13.5t19.5 28.5t31 28.5t44.5 13.5q18 0 27.5 -3t13.5 -7q6 -6 6 -10v-5q0 -2 -2 -2q-45 -63 -78.5 -114t-64.5 -100.5t-60.5 -99.5t-64.5 -110.5t-79 -135t-103 -173.5q29 -16 51 -41q20 -23 35.5 -55.5t15.5 -81.5 q0 -66 -21.5 -135.5t-57.5 -136t-83 -127t-98 -104.5t-103.5 -70.5t-97.5 -26.5q-41 0 -57.5 23.5t-16.5 62.5q0 33 13.5 80t35 99t50 108.5t57.5 109.5q68 125 154 260q-39 8 -84 9q-92 0 -176 -39t-162 -113q-2 -6 -8 -10q-12 -8 -19 -8q-4 0 -8 1t-4 7zM-49 -766 q0 -18 6 -26.5t29 -8.5q45 0 101 48t106.5 120t84 157t33.5 157q0 39 -10 64.5t-25 41.5q-16 18 -34 29q-80 -135 -146 -250q-27 -49 -53.5 -99.5t-47 -95.5t-32.5 -80.5t-12 -56.5zM74 127q0 -16 7 -33.5t32 -17.5q66 0 136 57t129.5 132t97.5 147.5t38 103.5q0 55 -55 55 q-49 0 -116 -43t-126 -109.5t-101 -144t-42 -147.5z" />
<glyph unicode="r" horiz-adv-x="641" d="M4 289q0 10 2 17t6 13q4 8 8 13q33 37 51.5 61.5t30 41t15.5 25.5t6 13q-33 6 -50.5 19.5t-25.5 29t-10 29.5t-2 24q0 43 27.5 86.5t67.5 78t85 56t80 21.5q29 0 36 -12t7 -27q0 -29 -15.5 -69.5t-33.5 -81.5q-23 -47 -49 -97q55 2 102 23.5t82 48.5q41 31 74 68 q18 16 47 16q25 0 42 -7t17 -15q0 -6 -6 -13l-6 -6q-43 -66 -99.5 -141.5t-105.5 -151.5t-83 -145.5t-34 -124.5q0 -18 5.5 -33.5t37.5 -15.5q12 0 26.5 3t34 13t46 31.5t65.5 58.5q41 41 99.5 103.5t136.5 160.5q0 2 2 5q2 2 6 2l4 -4q4 -2 6 -9q4 -12 4 -22t-5 -26.5 t-21 -37.5q-74 -98 -152 -173t-131 -113q-66 -47 -104.5 -58.5t-63.5 -11.5q-63 0 -83.5 35t-20.5 76q0 61 29.5 133.5t66.5 136.5q43 74 96 147q2 0 2 2v4q0 4 -8 5q-88 -23 -149 -27q-37 -51 -61.5 -84t-43 -54.5t-32 -34.5t-27.5 -26q-2 -2 -6 -4q-8 -4 -13 -4 q-8 0 -10 10.5t-2 18.5zM117 596q0 -20 9 -31.5t19 -17.5q12 -8 27 -10q23 37 39 71q14 29 25.5 59t11.5 46t-7.5 18t-13.5 2q-14 0 -33.5 -15.5t-37 -37t-28.5 -45t-11 -39.5z" />
<glyph unicode="s" horiz-adv-x="598" d="M-135 -63q0 51 36 98t93 84t125.5 60.5t136.5 29.5q31 74 51.5 138.5t34.5 111.5q16 55 25 102q0 10 -7 10q-2 0 -4 -2q-23 -12 -51.5 -32.5t-57 -45t-54 -49t-43.5 -45.5q-20 -23 -38 -41t-30 -34q-14 -18 -27 -33q-6 -6 -12 -6t-10 6q-2 4 -4 6v4q0 2 -1 5t-1 7 q0 20 10 41q6 10 16 23q10 10 23.5 24.5t29.5 32.5q33 35 82.5 79t108.5 87t128 79t138 52q10 0 30.5 -10t20.5 -35q0 -2 -4 -6q-6 -6 -16 -6q-29 -8 -53 -23q-23 -12 -41.5 -31.5t-28.5 -48.5q-4 -12 -8 -26q-4 -12 -7 -25.5t-7 -23.5q-14 -78 -37 -151t-45 -132 q41 0 74.5 6t69.5 26.5t79 60.5t98 108l4 4q2 2 8 2q8 0 15 -6q4 -4 8 -13.5t4 -25.5q-86 -123 -174 -174.5t-215 -51.5q-37 -76 -90 -137q-47 -53 -116 -96t-165 -43q-53 0 -77.5 18.5t-24.5 47.5zM-37 -35q0 -18 9.5 -23t33.5 -10q47 0 87 33t71 74q36 47 65 104 q-20 0 -64 -13t-89 -36.5t-79 -56.5t-34 -72z" />
<glyph unicode="t" horiz-adv-x="460" d="M-127 1032q0 55 43 87t98.5 48.5t108.5 20.5t76 4h16q23 0 23 -16q0 -10 -11 -15q-6 -2 -10 -2q-88 -10 -136 -27.5t-71 -37.5q-27 -23 -30 -50q0 -14 11 -29.5t38.5 -26.5t75 -18t118.5 -7q90 0 185 6q37 55 69.5 102t54.5 82q6 10 21 18q12 6 32.5 11.5t55.5 5.5 q18 -2 18 -14v-7q0 -2 -2 -4q-14 -23 -34 -51q-16 -25 -38 -57.5t-50 -73.5q147 14 302.5 28.5t309.5 14.5q80 0 135 -10t90 -25t50.5 -31t15.5 -30t-19 -15q-10 0 -28 7q-39 10 -88 18q-41 8 -95.5 13t-117.5 5q-57 0 -130 -3t-151 -8t-159 -12t-154 -13 q-45 -70 -95.5 -150t-98.5 -163t-93 -164t-79 -152.5t-54.5 -130t-20.5 -94.5q0 -23 6.5 -41.5t42.5 -18.5q20 0 53 16.5t83.5 58.5t120 114.5t161.5 185.5q0 2 2 4t6 2q2 0 9.5 -8t7.5 -25q0 -10 -4 -24.5t-21 -34.5q-98 -129 -178 -204t-140.5 -111.5t-99 -47t-53.5 -10.5 q-59 0 -80.5 39t-21.5 82q0 72 40 177.5t101.5 224t135 240.5t143.5 226q-92 -6 -150 -6q-188 0 -267 38t-79 89z" />
<glyph unicode="u" horiz-adv-x="800" d="M-53 82q0 35 12 77t31.5 88t44 93t49.5 92q59 104 135 217q8 10 29.5 23.5t79.5 13.5q16 0 16 -14q0 -6 -2 -8t-2 -5q-12 -16 -38 -56t-57.5 -93t-66.5 -114.5t-63 -119.5q-14 -29 -27 -57q-10 -25 -18.5 -52.5t-8.5 -49.5q0 -12 7.5 -34t40.5 -22q18 0 48.5 14.5 t77 56.5t106.5 121t138 208q53 88 82 127q6 10 21 18q12 8 32.5 13.5t55.5 5.5q16 0 16 -15q0 -8 -2 -10t-2 -4q-20 -29 -59 -90.5t-88 -155.5q-20 -43 -37 -84q-14 -35 -26.5 -74.5t-12.5 -74.5q0 -16 6 -36t35 -20q33 0 74.5 29t90 74t98.5 102.5t99 114.5q0 2 2 4t6 2 q2 0 9.5 -8.5t7.5 -24.5q0 -10 -5 -24.5t-20 -34.5q-33 -47 -80 -101.5t-102 -101.5t-112.5 -77.5t-110.5 -30.5q-59 0 -78 33.5t-19 74.5q0 20 3.5 37.5t7.5 34.5q4 18 8 33q0 8 -4 8q-2 0 -6 -4q-45 -61 -99 -111q-45 -41 -103 -77t-120 -36q-59 0 -79.5 32t-20.5 73z" />
<glyph unicode="v" horiz-adv-x="1015" d="M37 328q0 14 8 30l6 13q84 106 148.5 163.5t110.5 84t74 31.5t36 5q25 0 40 -8t23.5 -20.5t11.5 -25.5t3 -23q0 -53 -22.5 -115t-50.5 -127.5t-51.5 -132t-23.5 -131.5q0 -29 9.5 -46.5t31.5 -21.5q41 0 88 33t88 74q47 47 92 106q-23 29 -30.5 59.5t-7.5 61.5 q0 70 25.5 131t62 107.5t79.5 73t78 26.5q29 0 39 -13.5t10 -41.5q0 -51 -24.5 -116t-54.5 -122q-37 -68 -82 -135q45 -27 90 -27q49 0 103 36t120 114q8 10 17.5 21t19.5 22q0 2 2 2h8q12 0 16 -15q3 -8 3 -14q0 -16 -15.5 -40.5t-38.5 -53.5q-53 -70 -119.5 -109 t-136.5 -39q-61 0 -118 33q-57 -74 -121 -133q-53 -51 -120 -92t-132 -41q-55 0 -75.5 38t-20.5 91q0 70 23.5 144.5t51 143t51 124t23.5 84.5q0 10 -4 22t-23 12q-6 0 -21 -4t-48 -29.5t-87.5 -81t-140.5 -159.5q-6 -6 -10 -6q-10 0 -12 16.5t-2 20.5zM694 379 q0 -41 11 -66q6 -12 10 -22q35 53 63 104q25 43 44.5 91t19.5 81q0 39 -19 39q-12 0 -33.5 -20.5t-43 -53t-37 -72.5t-15.5 -81z" />
<glyph unicode="w" horiz-adv-x="1370" d="M37 328q0 14 8 30l6 13q84 106 149.5 164.5t111.5 87t75 35t37 6.5q25 0 40 -8.5t23.5 -20.5t11.5 -25.5t3 -23.5q0 -53 -21.5 -111.5t-48 -118t-48.5 -121t-22 -120.5q0 -29 7.5 -38t29.5 -9q25 0 71 35.5t96 96t99.5 136.5t82.5 156q23 35 54.5 42t59.5 7q16 0 17 -13 q0 -8 -2 -10t-3 -4q-10 -18 -23 -46t-26 -54q-14 -31 -28 -64q-18 -47 -33 -96q-12 -41 -22.5 -88t-10.5 -84q0 -63 37 -70q41 0 86 34t82 75q43 47 86 106q-23 29 -31 59.5t-8 61.5q0 70 25.5 131.5t62.5 107.5t80 72.5t78 26.5q29 0 39 -13.5t10 -41.5q0 -51 -24.5 -115.5 t-55.5 -122.5q-37 -68 -82 -135q45 -27 90 -27q49 0 99.5 31t115.5 109q8 10 17.5 21t19.5 22q0 2 2 2h8q12 0 17 -15q2 -8 2 -14q0 -16 -15.5 -40.5t-37.5 -53.5q-106 -137 -248 -137q-61 0 -119 32q-53 -74 -113 -133q-51 -51 -112.5 -93t-124.5 -42q-53 0 -73.5 38 t-20.5 95q0 31 4 64t12 71v2q0 2 -4 3q-2 0 -10 -9q-45 -61 -95 -110q-41 -41 -92 -76t-100 -35q-47 0 -67.5 32t-20.5 85q0 61 21.5 131t48 134.5t48 117.5t21.5 82q0 10 -4 22.5t-23 12.5q-6 0 -22 -5.5t-49 -33t-88.5 -84t-141.5 -160.5q-6 -6 -10 -6q-10 0 -12 16.5 t-2 20.5zM1057 389q0 -41 10 -65q6 -12 10 -23q35 53 64 105q25 43 44 91t19 81q0 39 -18 38q-12 0 -34 -20.5t-43.5 -53t-36.5 -72.5t-15 -81z" />
<glyph unicode="x" horiz-adv-x="849" d="M-119 8q0 2 2 6q2 6 17 6q14 0 45.5 6.5t84 31t126 74.5t172.5 138q4 74 9 127.5t5 89.5q0 18 -5 39t-24 21q-12 0 -36.5 -18.5t-52 -47t-57.5 -61.5t-54.5 -61.5t-41 -49t-18.5 -22.5q-6 -6 -12 -6t-10 6q-2 4 -4 6v4q0 2 -1 5t-1 7q0 8 1 17.5t7 21.5q61 80 121 146 q51 55 108 100t105 45q45 0 59 -37t14 -94q0 -41 -4 -77t-6 -64q4 2 26.5 25.5t55.5 56t75 69.5t84 68.5t82 53.5t70 22q16 0 42 -12.5t26 -35.5q0 -12 -19 -12q-47 0 -109.5 -36t-126 -86t-119.5 -104t-93 -89q-2 -31 -2 -56.5v-46.5q0 -33 1 -64.5t9 -55t23.5 -38 t44.5 -14.5q23 0 55.5 15.5t80.5 56.5t115.5 112.5t159.5 184.5q0 2 2 4t7 2q2 0 9 -8.5t7 -24.5q0 -10 -4 -24.5t-21 -34.5q-98 -129 -178 -203t-138 -111.5t-94 -47t-44 -9.5q-20 0 -45 4t-45.5 21.5t-34 50.5t-13.5 88v36t5 66q-123 -121 -220.5 -174t-150.5 -53 q-25 0 -39 6t-23 17q-8 10 -10 22z" />
<glyph unicode="y" horiz-adv-x="1017" d="M-100 -289q0 45 34.5 82t88 63.5t120 41t129.5 14.5q31 0 64 -3t63 -11q23 41 44.5 74.5t37.5 62.5q-33 -14 -63 -27q-27 -10 -55.5 -19t-51.5 -9q-57 0 -75.5 33.5t-18.5 72.5q0 63 29.5 130t64.5 129.5t65 116.5t30 93q0 8 -3.5 17.5t-19.5 9.5q-33 0 -71 -26t-81 -68 t-87 -95t-89 -108q-4 -4 -9 -11.5t-9 -7.5q-10 0 -11 13.5t-1 23.5q0 8 1 17.5t7 21.5q25 37 72 93.5t104 108.5t118.5 90t116.5 38q47 0 60.5 -28t13.5 -48q0 -55 -27.5 -116.5t-61.5 -125t-62.5 -125t-28.5 -114.5q0 -25 9 -37t40 -12q23 0 49.5 10t48.5 22q27 14 56 33 q12 18 35.5 66.5t56.5 108t74 124t88 117.5t100 88t109 35q65 -1 65 -62q0 -57 -41 -120.5t-103.5 -126t-136 -121t-139.5 -105.5q-4 -10 -10 -19.5t-10 -17.5q-29 -49 -64 -110.5t-76 -126.5q47 -27 78 -74t31 -102q0 -90 -48 -193.5t-120 -193t-153.5 -148.5t-149.5 -59 q-37 0 -52.5 24.5t-15.5 59.5q0 29 7.5 56.5t15.5 51.5q8 29 20 55q23 55 53.5 118t65.5 127.5t71 128t70 122.5q-18 4 -40.5 6t-45.5 2q-76 0 -163.5 -30.5t-167.5 -116.5q-2 -6 -8 -10q-12 -8 -21 -9q-4 0 -8 5q-8 8 -8 30zM162 -776q0 -16 6 -25.5t27 -9.5q39 0 95 47 t108.5 118t89 155.5t36.5 160.5q0 39 -10 63.5t-25 41.5q-16 18 -34 26q-47 -80 -94.5 -160.5t-86 -151.5t-66.5 -125t-34 -85q-2 -10 -6 -18q-6 -16 -6 -37zM709 242q18 12 65 52t95.5 91t86 102t37.5 86q0 20 -20 21q-16 0 -37 -15.5t-42.5 -40t-44 -56t-42.5 -64.5 q-49 -78 -98 -176z" />
<glyph unicode="z" horiz-adv-x="667" d="M-113 -684q0 66 21.5 122t55.5 105t78 89t89 71q106 74 242 123q4 23 6 44t2 38q0 106 -39 140t-117 34q-66 0 -108.5 -13.5t-53.5 -13.5q-8 0 -12 8q-2 4 -2 7q4 18 21 36q8 8 14 17q6 4 17.5 9t23.5 9q14 6 31 9q49 12 111.5 49t117.5 88t93 110.5t38 120.5 q0 70 -67 70q-37 0 -88.5 -25.5t-104.5 -67.5t-103.5 -93.5t-84.5 -102.5q-10 -10 -19 -10q-16 0 -16 30q0 10 4 22.5t16 29.5q41 51 90 100q41 41 97.5 84t119.5 66q16 8 39 14q18 4 41 8t47 4q51 0 92.5 -23.5t41.5 -93.5q0 -74 -50.5 -141t-111.5 -121q-72 -61 -164 -114 q-2 0 -4 -2q-6 -6 -6 -9q0 -8 12 -10q51 -12 90 -41q35 -25 61.5 -70t26.5 -122v-21.5t-2 -23.5q45 8 98 16q45 6 99.5 11t111.5 5q160 0 261.5 -27.5t159 -67.5t79 -85t21.5 -78q0 -31 -7 -45q-4 -8 -6 -16q-10 -10 -14 -10q-8 0 -16 16q-4 8 -7 18q-27 82 -92 130.5 t-141 71t-147.5 28.5t-112.5 6q-63 0 -117.5 -5t-95.5 -11q-47 -8 -84 -17q-14 -80 -64.5 -183.5t-119 -194.5t-149.5 -153.5t-159 -62.5q-49 0 -66.5 37t-17.5 78zM-25 -653q0 -53 37 -54q33 0 71 29t75 74t70.5 99t60 106.5t44 94t21.5 64.5q-106 -47 -188 -110 q-35 -27 -70 -59.5t-61.5 -71.5t-43 -82t-16.5 -90z" />
<glyph unicode="{" horiz-adv-x="591" d="M-33 -84q0 86 40 173t87 169t87 153.5t40 127.5q0 20 -5 32.5t-11 22.5q-8 10 -17 16q-10 6 -10 11q0 14 12 14q61 4 116.5 52t96.5 106q49 68 89 149q74 139 138 216t112.5 114t79 44t36.5 7q33 0 33 -16q0 -8 -19 -19q-25 -8 -61 -43q-31 -29 -74 -89t-100 -165 q-10 -29 -44 -88t-83 -120.5t-110.5 -111.5t-129.5 -61h-2q-4 0 -4 -2t4 -6q6 -12 15 -29q6 -14 10 -34.5t4 -49.5q0 -74 -40 -153.5t-89 -161.5t-89 -165t-40 -163l4 -28q0 -12 -8 -15.5t-15 -3.5q-12 0 -22 12.5t-16.5 31t-10.5 39t-4 34.5z" />
<glyph unicode="|" horiz-adv-x="688" d="M-2 -170q6 10 45 76.5t98.5 168t132 226.5t148.5 254q176 303 397 682q12 14 38 32.5t61 18.5q16 0 16 -10l-819 -1415q-14 -23 -46 -36t-46 -13q-25 0 -25 16z" />
<glyph unicode="}" horiz-adv-x="606" d="M-203 -184q0 8 19 18q25 8 61 43q31 29 75 88.5t99 165.5q16 29 50 93.5t83 132t111.5 124t134.5 68.5h4q2 0 2 2t-4 6q-6 12 -14 29q-14 33 -15 84q0 74 39 147.5t85 148t84 152.5t38 158l-4 29q0 12 8.5 15t14.5 3q12 0 22 -12.5t16.5 -30.5t10.5 -39t4 -35 q0 -86 -38 -168t-83 -155.5t-83 -140t-38 -121.5q0 -20 5 -33t12 -23q8 -10 16 -16q10 -6 10 -10q0 -14 -12 -15q-31 -2 -60.5 -18.5t-57 -41t-52.5 -55t-47 -61.5q-51 -74 -96 -168q-74 -139 -138.5 -216t-112.5 -113.5t-79 -44t-37 -7.5q-33 0 -33 17z" />
<glyph unicode="~" horiz-adv-x="1013" d="M-27 74q0 37 6.5 72.5t16.5 64.5q10 35 22 65q18 45 41 99q20 47 51 112.5t74 143.5q-45 8 -82 24q-31 14 -57.5 41t-26.5 70q0 29 11.5 45t25 25.5t24.5 12.5t13 3q20 0 21 -14v-7q0 -2 -2 -2q-14 -29 -15 -51q0 -31 19.5 -48t42.5 -28q27 -10 59 -16q115 197 229 352 q49 66 103.5 129.5t109 112.5t106.5 79t99 30q43 0 63.5 -26t20.5 -69q0 -59 -34.5 -142t-94.5 -169q49 -14 139 -14h3q37 55 69.5 102t54.5 82q6 10 21 18q12 6 32.5 11.5t55.5 5.5q18 -2 18 -14v-7q0 -2 -2 -4q-14 -23 -34 -51q-16 -25 -38 -57.5t-51 -73.5 q147 14 303 28.5t310 14.5q80 0 135 -10t90 -24.5t50.5 -31t15.5 -30.5t-19 -15q-10 0 -28 7q-39 10 -89 18q-41 8 -95 13t-118 5q-57 0 -129.5 -3t-150.5 -8t-159 -12t-154 -13q-45 -70 -95.5 -150t-98.5 -163t-93 -164t-79 -152.5t-54.5 -130t-20.5 -94.5q0 -23 6.5 -41.5 t42.5 -18.5q20 0 53 16.5t83.5 58.5t120 114.5t161.5 185.5q0 2 2 4t6 2q2 0 9.5 -8t7.5 -25q0 -10 -4 -24.5t-21 -34.5q-98 -129 -178 -204t-140.5 -111.5t-99.5 -47t-53 -10.5q-59 0 -80.5 39t-21.5 82q0 66 35 164q-55 -59 -104.5 -103.5t-88.5 -70.5 q-96 -66 -157.5 -86.5t-96.5 -20.5q-66 0 -91.5 45t-25.5 103zM92 96q0 -37 14.5 -59.5t53.5 -22.5q20 0 52 10.5t79 38.5q33 20 80 62q41 35 101 95.5t138 158.5q63 133 148.5 272t163.5 260q-47 0 -82 4.5t-64 10.5q-45 -55 -98 -105.5t-112.5 -90.5t-125 -66.5 t-133.5 -34.5q-47 -84 -91 -173t-83 -186q-12 -29 -20 -59q-8 -27 -14.5 -56.5t-6.5 -58.5zM344 692q106 18 201.5 91t167.5 163q-35 16 -47.5 35.5t-12.5 38.5q0 23 8.5 33t14.5 10q12 0 20 -12q4 -6 13 -15q14 -14 45 -32q53 78 83.5 146.5t30.5 109.5q0 39 -28 38 q-27 0 -62 -25.5t-74.5 -68.5t-81.5 -97t-83 -112q-94 -133 -195 -303z" />
<glyph unicode="&#xa1;" horiz-adv-x="520" d="M-264 -399q0 8 39 69.5t104.5 161.5t150.5 231.5t175 280.5q12 18 28.5 28.5t32.5 14.5q18 6 37 4q16 0 19.5 -7t3.5 -17q-10 -14 -32 -50t-49.5 -85.5t-60 -107.5t-63.5 -116q-74 -135 -160 -297q-29 -49 -58.5 -76.5t-56 -41t-47 -15.5t-28.5 -2q-23 0 -29 8t-6 17z M352 600q0 35 14.5 61.5t34 45t41 27.5t35.5 9q27 0 35 -18.5t8 -28.5q0 -25 -13 -49t-33.5 -43.5t-42 -31t-40.5 -11.5q-14 0 -26.5 7t-12.5 32z" />
<glyph unicode="&#xa2;" horiz-adv-x="835" d="M33 113q0 74 39 167t106.5 175t157.5 138t192 56q6 0 9 4q18 31 30.5 51.5t16.5 28.5q20 29 41.5 35t29.5 6q10 0 11 -10q0 -8 -2 -12q-18 -31 -33 -56q-12 -23 -22.5 -39t-10.5 -20q0 -2 1 -2t1 -2v-2q10 -8 22.5 -24.5t12.5 -49.5q0 -57 -26.5 -96t-62.5 -63.5t-74 -36 t-60 -11.5q-31 0 -45.5 9.5t-14.5 13.5q0 6 8 10q4 2 7 2q76 18 122 68.5t46 97.5q0 23 -9.5 31t-27.5 8q-49 0 -109.5 -51.5t-113 -125t-87 -156.5t-34.5 -144q0 -47 22.5 -75t75.5 -28q43 0 96 18.5t113.5 61.5t127 113.5t136.5 177.5q0 2 2 4t4 2t6 -4q2 -2 4 -8 q4 -13 4 -23q0 -37 -45 -106.5t-120.5 -139t-173 -122t-199.5 -52.5q-6 0 -8 -6q-16 -29 -27.5 -50t-19.5 -32q-10 -18 -23.5 -28.5t-24.5 -14.5q-12 -6 -24 -6t-12 12q0 8 4 13q14 20 28.5 45.5t38.5 71.5q0 2 2 4q0 4 -2 4h-4q-37 10 -69.5 46t-32.5 122z" />
<glyph unicode="&#xa3;" horiz-adv-x="1497" d="M-199 -31q0 49 74 94.5t223 45.5q94 0 221 -27q6 6 10.5 9t8.5 7t4 6q59 59 130 169t144 251h-41h-59q-12 0 -20 -2q-12 0 -13 8q0 4 2 7l2 2q8 12 21 22q10 10 25.5 17.5t35.5 7.5q8 2 21 2h59q10 16 20.5 37.5t28.5 58.5q-23 0 -43 -2q-16 -2 -33.5 -3t-27.5 -1 q-100 0 -173 19.5t-120 51t-68.5 73.5t-21.5 87q0 57 31.5 113.5t89 102.5t138.5 75t179 29q43 0 85 -4t77 -13.5t56.5 -20.5t21.5 -28q0 -8 -8 -10q-23 0 -59 8t-103 8q-94 0 -171 -24.5t-129 -62.5t-81 -85t-29 -92q0 -68 67.5 -119t215.5 -51q29 0 53.5 2t42.5 4 q23 2 41 4q55 111 123 207.5t140.5 167t146 110.5t143.5 40q33 0 50.5 -10.5t25.5 -24.5t10 -29.5t2 -23.5q0 -88 -47 -167t-124 -141.5t-174 -106.5t-196 -65q-4 -6 -7 -13t-7 -13q-10 -23 -20.5 -45.5t-22.5 -44.5q35 -2 61.5 -2h49.5h52t50 2q4 0 10 -1t6 -12 q0 -4 -2 -11t-10 -14t-26.5 -13.5t-53.5 -12.5h-17t-29.5 -1t-48.5 -1h-75q-66 -123 -151.5 -245.5t-184.5 -213.5q29 -8 56.5 -16t56.5 -18q53 -18 113 -33q51 -12 115.5 -21.5t129.5 -9.5q104 0 183.5 34t133.5 85t80.5 112.5t26.5 116.5q0 78 -75 78q-14 0 -38 -4 t-51.5 -16.5t-58.5 -37t-61 -65.5q-18 -23 -35 -49q-14 -23 -28.5 -52.5t-24.5 -64.5q0 -4 -2 -8q-4 -6 -17 -10q-6 2 -10 8q-4 4 -6 14.5t-4 28.5q0 6 2 30.5t14 60.5t36 78t67 81q31 27 67 47q31 16 70 30.5t82 14.5q16 0 39.5 -3t46 -17.5t39 -43t16.5 -81.5 q0 -104 -54.5 -190.5t-134 -149t-172 -96t-167.5 -33.5q-80 0 -146.5 18.5t-125 43t-114 49t-112.5 36.5q-12 -8 -16 -10q-43 -37 -97 -64q-45 -23 -106.5 -42t-132.5 -19q-94 0 -140.5 28.5t-46.5 67.5zM-92 -29q0 -39 94 -39q78 0 143.5 31t112.5 66q-92 18 -154 18 q-96 0 -146 -25.5t-50 -50.5zM864 770q53 4 124 42t135.5 93.5t108.5 122t44 129.5q0 39 -41 39q-31 0 -62.5 -18.5t-63.5 -48t-61.5 -67.5t-58.5 -79q-66 -94 -125 -213z" />
<glyph unicode="&#xa5;" horiz-adv-x="1421" d="M104 801q0 61 53.5 145t145.5 159t219 128t275 53q14 0 42.5 -4t56.5 -19.5t48.5 -46t20.5 -83.5q0 -70 -36 -138.5t-79 -136t-79 -131t-36 -121.5q0 -35 19.5 -44t58.5 -9q51 0 99.5 15.5t88.5 33.5q47 23 89 49q41 94 90 196.5t106 187.5t124 140.5t140 55.5 q23 0 35 -9.5t19 -21.5q8 -15 8 -33q0 -68 -43 -140.5t-106.5 -143t-137.5 -132t-133 -104.5q-18 -41 -45 -103.5t-60 -133.5q61 0 112.5 1t86.5 3q4 0 10.5 -2t6.5 -9q0 -10 -12.5 -26.5t-78.5 -24.5q-23 -2 -66.5 -2h-86.5q-18 -39 -39 -78q63 0 114.5 1t86.5 3q6 0 10 -2 q8 -4 8 -8t-2 -8q-2 -12 -18 -22q-14 -10 -41 -16.5t-76 -6.5h-113q-84 -152 -186 -270q-43 -51 -95.5 -99.5t-110.5 -86.5t-121.5 -61.5t-133.5 -23.5q-18 0 -47 5.5t-56.5 19.5t-47 42t-19.5 75q0 55 30.5 113.5t79 105.5t105.5 76.5t111 31.5q6 -2 14 -4q14 -4 14 -10 q0 -8 -32 -23q-47 -18 -86 -52t-67 -73.5t-42 -80.5t-14 -74q0 -53 25.5 -69.5t60.5 -16.5q90 0 168.5 53t144.5 128t116 157t81 139q-31 2 -56.5 2h-48.5h-65q-14 0 -25 -2q-14 0 -14 8q0 4 2 6l2 2q8 12 20 21q10 8 25.5 15t36.5 7q10 2 24 2h76h55q6 12 16.5 31t24.5 45 q-33 2 -60.5 2h-49.5h-72q-14 0 -24 -2q-12 0 -13 8q0 4 2 7l2 2q8 14 21 22q10 8 25.5 14.5t35.5 6.5q10 2 33 2h129q16 31 32.5 68.5t37.5 82.5q-43 -23 -95 -43q-43 -16 -97 -30.5t-113 -14.5q-49 0 -77 12.5t-41.5 29t-16.5 31.5t-3 21q0 88 39 162t87 141.5t87 131 t39 131.5q0 35 -13 52t-30 25q-20 8 -43 11q-113 -2 -216 -46t-183 -104.5t-127 -123t-47 -103.5q0 -29 22.5 -40t57.5 -11q41 0 115.5 23.5t166.5 107.5l4 4q2 2 11 2q6 0 10 -2t4 -14q0 -31 -34 -69t-86 -72t-113.5 -56.5t-116.5 -22.5q-70 0 -105 22.5t-35 80.5z M1235 754q53 39 106.5 91t95.5 104t67.5 99t25.5 76q0 8 -4 15.5t-15 7.5q-18 0 -43.5 -18.5t-59.5 -64.5t-77 -121t-96 -189z" />
<glyph unicode="&#xa6;" horiz-adv-x="1366" d="M-27 74q0 37 6.5 72.5t16.5 64.5q10 35 22 65q18 45 41 99q20 47 51 112.5t74 143.5q-45 8 -82 24q-31 14 -57.5 41t-26.5 70q0 29 11.5 45t25 25.5t24.5 12.5t13 3q20 0 21 -14v-7q0 -2 -2 -2q-14 -29 -15 -51q0 -31 19.5 -48t42.5 -28q27 -10 59 -16q115 197 229 352 q49 66 103.5 129.5t109 112.5t106.5 79t99 30q43 0 63.5 -26t20.5 -69q0 -55 -33 -137q51 41 123 69.5t160 28.5q117 0 179.5 -58t62.5 -155q0 -86 -46 -190t-107.5 -208.5t-126 -201t-101.5 -168.5q-20 -39 -39 -75q-16 -33 -28.5 -69t-12.5 -67q0 -18 8 -36.5t37 -18.5 q57 0 151.5 90t249.5 283l2 2q2 2 5 2q4 0 8 -9.5t4 -25.5q0 -12 -5 -28.5t-22 -38.5q-102 -133 -180 -205t-132 -105.5t-86 -40t-42 -6.5q-59 0 -79.5 37t-20.5 78q0 39 8 68.5t10 33.5q0 6 -4 7q-2 0 -6 -5q-51 -59 -101.5 -93t-90.5 -51t-67.5 -21.5t-31.5 -4.5 q-33 0 -53.5 11.5t-31.5 29t-15.5 39t-4.5 41.5q0 16 2.5 33.5t6.5 36.5q-43 -45 -83 -78t-71 -55q-96 -66 -157.5 -86.5t-96.5 -20.5q-66 0 -91.5 45t-25.5 103zM92 96q0 -37 14.5 -59.5t53.5 -22.5q20 0 52 10.5t79 38.5q29 16 67 52q35 29 86.5 79t116.5 128 q35 59 82 114.5t102.5 97t118 67.5t125.5 26q35 0 65.5 -13.5t47.5 -50.5l2 -2q4 -4 6 -4q6 0 8 6q37 39 78 106.5t76 141.5t57.5 141.5t22.5 108.5q0 43 -15.5 70.5t-40 43t-54.5 20.5t-58 5q-66 0 -120 -20.5t-93 -51t-60.5 -66.5t-21.5 -65q0 -27 22.5 -43t69.5 -16 q25 0 58.5 7t66.5 18.5t60.5 27t41.5 31.5q10 8 19 8q8 0 8 -10q0 -23 -25.5 -50.5t-67.5 -52t-93.5 -41t-104.5 -16.5q-74 0 -107.5 27.5t-35.5 68.5q-45 -59 -100.5 -115.5t-118 -100.5t-132 -73.5t-143.5 -37.5q-47 -84 -91 -173t-83 -186q-12 -29 -20 -59 q-8 -27 -14.5 -56.5t-6.5 -58.5zM344 692q72 12 137.5 50t124 91.5t106.5 115t82.5 119.5t54 109.5t19.5 82.5q0 39 -28 38q-27 0 -62 -25.5t-74.5 -68.5t-81.5 -97t-83 -112q-94 -133 -195 -303zM602 111q0 -16 7 -33t34 -17q43 0 90 28t92 70t85 94t71 101t49.5 90.5 t18.5 61.5q-4 37 -20.5 49t-45.5 12q-45 0 -109.5 -47t-125 -116.5t-103.5 -148.5t-43 -144z" />
<glyph unicode="&#xa7;" horiz-adv-x="1024" d="M-16 49q0 23 14 41l16 16q6 4 15 5q6 0 14 -5q4 -2 4 -6q20 -27 47 -43t54.5 -24t54 -11.5t47.5 -3.5q43 0 94 13.5t95 38t74 57.5t30 72q0 37 -30 66.5t-74 55t-96 49t-96 48t-74 53.5t-30 66q0 39 28 73.5t71 63t92 51.5t92 38t72.5 23.5t31.5 8.5q14 2 15 10q0 4 -4 8 q-2 2 -6 2q-53 27 -72 54.5t-19 52.5q0 41 26 72.5t65.5 55t89 41t98.5 27.5t92 14.5t70 4.5q29 0 57.5 -2t52 -8.5t38 -19t14.5 -32.5q0 -27 -16.5 -44t-20.5 -17q-8 0 -18.5 8t-29 17.5t-47 17.5t-71.5 8q-59 0 -109.5 -13.5t-86.5 -33t-56.5 -44t-20.5 -46.5 q0 -29 27 -52.5t65.5 -44t86 -40t86 -42t65.5 -51t27 -65.5q0 -12 -7.5 -41t-40 -67t-99 -83t-187.5 -90l-2 -2q-4 -4 -4 -8t8 -10q23 -14 41 -33q16 -16 28.5 -36.5t12.5 -43.5q0 -43 -34 -91t-95.5 -88t-147.5 -65.5t-192 -25.5q-53 0 -110.5 11t-94.5 46q-20 20 -20 43z M274 543q0 -18 29 -43t68 -46.5t80 -37t65 -15.5q29 0 77 17.5t94 47.5t81 67.5t35 78.5q0 27 -20.5 48.5t-47.5 37.5q-31 20 -69 35q-4 2 -13 4q-6 2 -16 2h-23q-39 0 -97 -15t-111.5 -43t-92.5 -62.5t-39 -75.5z" />
<glyph unicode="&#xa8;" horiz-adv-x="1024" d="M297 821q0 25 11 48.5t29.5 42t40 29.5t40.5 11q43 0 43 -47q0 -27 -12.5 -51.5t-31 -42.5t-39 -28.5t-36.5 -10.5q-23 0 -34 14.5t-11 34.5zM598 821q0 25 11.5 48.5t29.5 42t39.5 29.5t40.5 11q43 0 43 -47q0 -27 -12.5 -51.5t-31 -42.5t-39 -28.5t-36.5 -10.5 q-23 0 -34 14.5t-11 34.5z" />
<glyph unicode="&#xaa;" horiz-adv-x="997" d="M51 360q0 2 1 3.5t1 3.5v2q0 2 6.5 11t18.5 20.5t31.5 20.5t46.5 9h475q41 0 63.5 1t38.5 5q2 2 4 2h8q11 0 11 -8q0 -4 -6 -14q-27 -45 -77 -55.5t-122 -10.5q-18 0 -66.5 1t-99.5 1h-131h-104.5t-50 -2t-18.5 -3t-11 -1q-18 0 -19 14zM248 688q0 74 43 158t110.5 156.5 t150.5 120.5t161 48q29 0 55.5 -12t40.5 -47l2 -2q4 -4 6 -4q4 0 6 6q16 29 38 49.5t48 20.5q10 0 28.5 -4t18.5 -17v-6q0 -2 -2 -2q-31 -39 -62.5 -91t-60.5 -99q-33 -53 -61 -111q-20 -35 -37 -70q-14 -29 -25.5 -61.5t-11.5 -58.5q0 -18 8.5 -34t36.5 -16q18 0 45 13.5 t69 49.5t102.5 100.5t142.5 166.5l2 2q2 2 4 2t8 -6t6 -22q0 -10 -4 -23.5t-16 -30.5q-88 -117 -161 -183.5t-125 -98t-84 -39.5t-40 -8q-55 0 -73.5 28.5t-18.5 63.5q0 41 10 69.5t10 34.5q0 4 -2 4l-4 -2q-2 -2 -4 -2q-47 -51 -90 -80.5t-77.5 -45t-61.5 -19.5t-41 -4 q-29 0 -46.5 10t-27.5 25.5t-13 34t-3 36.5zM354 705q0 -16 7.5 -34t35.5 -18q35 0 79 28t92 76t94.5 111.5t82.5 135.5q10 20 13.5 35.5t3.5 25.5q0 31 -14.5 40t-34.5 9q-45 0 -106.5 -44t-118 -107.5t-95.5 -134t-39 -123.5z" />
<glyph unicode="&#xab;" horiz-adv-x="1167" d="M201 379q0 10 2 12t2 4q2 10 20.5 26.5t46 37t62.5 44t72 46.5q84 53 190 117q4 2 12 4q16 4 37 4q4 0 14.5 -1t22.5 -3t21.5 -6.5t9.5 -10.5q0 -8 -15 -14q-74 -43 -143 -88q-59 -39 -124.5 -83t-113.5 -85q-2 -2 -4 -6q-4 -8 -4 -17q0 -6 2 -10q37 -66 74 -131 q33 -55 74 -115.5t84 -103.5q0 -2 2 -4t2 -10q0 -6 -17 -11q-8 -2 -18 -2q-29 0 -61.5 25t-64.5 61.5t-61.5 81.5t-53 85t-39 71l-19.5 39q-8 14 -10 24.5t-2 18.5zM475 342q0 18 21 37q94 66 176 121q72 47 143.5 92t108.5 61q10 4 20 9q10 4 18.5 6t18.5 2t25.5 -1 t31.5 -5l13 -5q12 -4 12 -12t-21 -16q-18 -12 -77.5 -45t-132 -76t-140 -89t-100.5 -87v-2q0 -2 -1 -3t-1 -5q0 -10 4 -19q16 -35 66.5 -111.5t150.5 -197.5q0 -2 2 -4t2 -8q0 -8 -8 -11q-10 -2 -19.5 -3t-17.5 -1q-31 0 -49 15l-16 16q-43 43 -84 99.5t-72 107.5 q-37 59 -70 121q0 2 -2 4t-2 10z" />
<glyph unicode="&#xac;" horiz-adv-x="1372" d="M-446 -721q0 74 33.5 180.5t90 229.5t129 258t148.5 266t150.5 252t134.5 217q8 14 15 26.5t15 24.5q-43 8 -80 27q-31 16 -56 42.5t-25 67.5q0 23 9 39.5t22.5 26.5t25.5 15t18 5q14 0 15 -12q0 -8 -2 -10t-2 -4q-6 -18 -7 -37q0 -29 15.5 -47.5t35 -29.5t41 -15 t33.5 -4q55 82 124 171t143.5 162.5t150.5 121.5t143 48q31 0 53.5 -15t22.5 -56t-21.5 -91.5t-59.5 -104.5t-90 -105t-113.5 -93t-131 -70t-141.5 -34q-6 -10 -13 -19.5t-13 -19.5q-41 -68 -101.5 -165t-128.5 -212q33 23 69 37.5t73 14.5q57 0 73.5 -33t16.5 -68 q0 -41 -17.5 -100.5t-46.5 -134.5q86 29 177 110.5t206 225.5q35 76 92.5 188.5t145.5 245.5q25 37 58.5 84t70.5 96t75.5 97t71.5 85q53 55 107 99q47 37 101 67.5t103 30.5q41 0 63.5 -29t22.5 -74q0 -49 -29.5 -111.5t-94 -123.5t-166 -114.5t-246.5 -84.5l-2 -2 q-80 -117 -163 -262t-146 -311q-12 -33 -23 -66q-10 -29 -17 -60.5t-7 -60.5q0 -25 7 -42t29 -17q66 0 134.5 55.5t130.5 132.5q-35 51 -35 129q0 53 21.5 108.5t57 103t80 77t89.5 29.5q49 0 49 -49q0 -33 -12.5 -78t-34 -94t-52 -102.5t-67.5 -104.5q27 -20 65 -21 q47 0 105.5 35t111.5 103q29 29 48 55q0 2 2 4t6 2q2 0 9 -8t7 -25q0 -10 -3 -25.5t-19 -33.5q-72 -92 -148 -134t-141 -42q-53 0 -94 24q-80 -98 -173.5 -164.5t-181.5 -66.5q-20 0 -41 4q-8 2 -14 6q-29 14 -40 44t-11 67q0 43 10 88t21 80q-74 -82 -165 -149.5 t-184 -96.5q-57 -125 -137 -262t-168 -252t-176 -189.5t-162 -74.5q-41 0 -58 30.5t-17 71.5zM-328 -672q0 -41 27 -41q37 0 98.5 61.5t131 158t139 211t120.5 223.5h-8q-100 0 -142 37.5t-44 93.5q-63 -111 -121.5 -220.5t-102.5 -208t-71 -180t-27 -135.5zM78 123 q0 -43 29.5 -75t103.5 -32h12q29 66 46.5 120t17.5 91q0 31 -16.5 50.5t-55.5 19.5q-27 0 -51.5 -16.5t-44 -41t-30.5 -55t-11 -61.5zM444 805q49 2 120 43t137.5 100.5t113.5 125t47 116.5q0 27 -22 27q-16 0 -41 -14.5t-47 -33.5q-25 -23 -54 -49q-33 -33 -71 -80 q-35 -41 -81 -99t-102 -136zM1053 350q0 -51 10 -80q53 82 86 153.5t33 100.5q0 27 -13 27q-18 0 -38.5 -18.5t-38 -47t-28.5 -64.5t-11 -71zM1118 901q115 33 191.5 79t125 95t69 95t20.5 77q0 43 -29 43q-20 0 -46 -16.5t-50 -36.5q-29 -23 -58 -55q-14 -14 -37.5 -42 t-53 -65t-63.5 -81t-69 -93z" />
<glyph unicode="&#xad;" horiz-adv-x="733" d="M137 297q0 2 1 3t1 3v2q0 2 6.5 11.5t18.5 20.5t31.5 20.5t46.5 9.5h270q41 0 63.5 1t38.5 5q2 2 4 2h9q10 0 10 -8q0 -4 -6 -15q-27 -45 -77 -55t-122 -10q-18 0 -34.5 1t-28.5 1h-29q-70 2 -104.5 1t-50 -2t-18.5 -3t-11 -2q-18 0 -19 14z" />
<glyph unicode="&#xaf;" d="M377 758q0 2 1 3t1 3v2q0 2 6 11t18.5 20.5t32 20.5t45.5 9h271q41 0 63.5 1t38.5 6q2 2 4 2h8q11 -1 11 -9q0 -4 -7 -14q-27 -45 -77 -55t-121 -10q-18 0 -34.5 1t-29.5 1h-28q-70 2 -105 1t-50 -2t-18.5 -3.5t-11.5 -2.5q-18 0 -18 15z" />
<glyph unicode="&#xb0;" horiz-adv-x="645" d="M295 915q0 49 22.5 95.5t57.5 81t77 55t83 20.5q45 0 68.5 -29.5t23.5 -76.5q0 -55 -24.5 -100.5t-61.5 -79t-79 -52t-79 -18.5q-41 0 -64.5 28.5t-23.5 75.5zM371 946q0 -23 12 -38t35 -15q35 0 59.5 18.5t41 43t24.5 48t8 33.5q0 51 -49 51q-20 0 -43 -12t-42.5 -31.5 t-32.5 -45t-13 -52.5z" />
<glyph unicode="&#xb1;" horiz-adv-x="1083" d="M-23 106q0 57 23 138.5t52.5 158t57 136t37.5 71.5q10 16 29 29q16 10 38 18.5t54 8.5q16 0 17 -13q0 -8 -2 -10t-2 -4q-55 -102 -99 -199q-18 -41 -36.5 -84t-32 -85t-22.5 -79.5t-9 -68.5q0 -29 4 -42t27 -13t67.5 35.5t96 96t101.5 136.5t83 156q23 35 54.5 42t59.5 7 q16 0 17 -13q0 -8 -2 -10t-2 -4q-10 -18 -23.5 -46t-25.5 -54q-14 -31 -29 -64q-18 -47 -33 -96q-12 -41 -22.5 -88t-10.5 -84q0 -63 37 -70q41 0 86 34t82 75q43 47 86 106q-23 29 -31 59.5t-8 61.5q0 70 26 131.5t62.5 107.5t79.5 72.5t78 26.5q29 0 39 -13.5t10 -41.5 q0 -51 -24.5 -115.5t-55.5 -122.5q-37 -68 -82 -135q45 -27 91 -27q49 0 99 31t116 109q8 10 17 21t19 22q0 2 3 2h8q12 0 16 -15q2 -8 2 -14q0 -16 -15.5 -40.5t-37.5 -53.5q-106 -137 -248 -137q-61 0 -119 32q-53 -74 -112 -133q-51 -51 -112.5 -93t-125.5 -42 q-53 0 -73.5 38t-20.5 95q0 31 4 64t12 71v2q0 2 -4 3q-2 0 -10 -9q-45 -61 -94 -112q-41 -43 -92.5 -78t-100.5 -35q-25 0 -39 13.5t-21 35t-10.5 47t-3.5 51.5zM770 389q0 -41 10 -65q6 -12 11 -23q35 53 63 105q25 43 44.5 91t19.5 81q0 39 -19 38q-12 0 -33.5 -20.5 t-43 -53t-37 -72.5t-15.5 -81z" />
<glyph unicode="&#xb2;" horiz-adv-x="804" d="M-143 -23q18 45 60 130.5t92 182.5t104.5 191t97.5 156q8 6 20 14q25 14 78 15q4 0 10 -2q10 -4 11 -15q0 -6 -11 -26l-192 -332q0 -4 2 -4q8 0 14 8q4 4 29 28.5t61.5 57.5t84 70.5t94.5 69.5t93 52.5t83 20.5q23 0 44 -13.5t21 -52.5q0 -41 -23.5 -96t-52 -111.5 t-52 -108.5t-23.5 -87q0 -12 6 -25.5t31 -13.5q12 0 33.5 9t57.5 37t86 80t122 138q16 18 30.5 35.5t20.5 20.5l4 2q6 0 8 -7q2 -2 4 -6q4 -8 4 -18t-6 -27.5t-22 -40.5q-18 -23 -36 -44t-34 -42q-59 -70 -111.5 -113.5t-95.5 -68.5t-77.5 -34t-63.5 -9q-31 0 -47.5 11 t-24.5 26.5t-9 30t-1 20.5q0 45 23.5 99.5t51 107.5t51 101t23.5 79q0 16 -6 20.5t-16 4.5q-29 0 -75 -29t-99 -75t-109.5 -102t-105.5 -110.5t-86 -99.5t-51 -72q-20 -37 -50 -45t-47 -8q-18 0 -24 10q-4 6 -4 10z" />
<glyph unicode="&#xb3;" horiz-adv-x="1245" d="M-217 891q0 55 43 87t98.5 48t108.5 20.5t76 4.5h16q23 0 22 -17q0 -10 -10 -14q-6 -2 -10 -2q-88 -10 -136 -27.5t-71 -38.5q-27 -23 -31 -49q0 -14 11.5 -29.5t39 -26.5t74.5 -18.5t119 -7.5q88 0 182 6q14 23 27.5 43.5t28.5 40.5q18 29 41.5 63t47 67.5t43 63.5 t32.5 48q6 10 20 18q12 6 32.5 11.5t55.5 5.5q18 -2 19 -14v-7q0 -2 -3 -4q-27 -41 -53 -82q-23 -35 -51.5 -77.5t-56.5 -83.5q-12 -20 -25.5 -40t-26.5 -40q90 8 190.5 17t182.5 15q49 72 107.5 147t124.5 148q53 55 106 99q47 37 101.5 67.5t103.5 30.5q41 0 63.5 -28.5 t22.5 -73.5q0 -49 -29.5 -112t-94 -124t-166 -114.5t-247.5 -84.5q-66 -94 -122 -183t-84 -152v-5q0 -2 2 -4q4 0 38.5 29t87 62.5t117 62.5t127.5 29q31 0 59.5 -10.5t28.5 -51.5q0 -33 -23.5 -70.5t-71.5 -73.5t-120.5 -65.5t-169.5 -46.5q-4 0 -8 -2q-10 -4 -10 -10 l6 -41t22.5 -90t46 -90t74.5 -41q20 0 58.5 9t97.5 54q27 18 52.5 42t55 54.5t64.5 71.5t78 94q2 4 4 7q4 4 8 4q2 0 6 -4q4 -2 8 -7q6 -6 7 -22q0 -23 -25 -55q-92 -121 -172 -188.5t-140.5 -100.5t-99.5 -40t-49 -7q-33 0 -60.5 16t-49 43t-37 60.5t-27.5 68.5 q-27 82 -39 188q0 16 -8 17q-6 0 -10 -6q-2 -4 -4 -6q-57 -98 -116.5 -209t-119.5 -232l-4 -8q-4 -8 -14 -8q-16 0 -39 22.5t-23 47.5q0 8 4 20q2 6 2 8q8 12 17 31q8 16 18.5 37.5t24.5 48.5q-68 -70 -122 -110t-96 -60.5t-68.5 -26.5t-39.5 -6q-59 0 -80.5 39t-21.5 82 q0 61 28.5 145t74.5 181.5t104.5 200t120.5 200.5q-92 -6 -150 -6q-188 0 -267 38t-79 89zM57 66q0 -23 6.5 -41.5t42.5 -18.5q18 0 51 15.5t82.5 55.5t116 109.5t154.5 178.5q57 102 124.5 215.5t139.5 224.5v2q-76 -4 -175 -11.5t-189 -15.5q-61 -98 -125 -205.5 t-114 -205t-82 -177t-32 -126.5zM745 418q0 -10 23 -10q61 2 113.5 20t90.5 44t59.5 53.5t21.5 45.5q0 16 -14.5 19.5t-18.5 3.5q-37 0 -84 -25.5t-89 -57.5t-72 -59.5t-30 -33.5zM967 905q115 33 191.5 79t124.5 95t68.5 95t20.5 77q0 43 -29 43q-20 0 -45.5 -16t-50.5 -37 q-29 -23 -57 -55q-14 -14 -38 -42t-53.5 -65t-63.5 -81t-68 -93z" />
<glyph unicode="&#xb4;" horiz-adv-x="616" d="M195 793q0 4 1 5t1 3v4q33 31 75 65q37 29 87.5 68t115.5 80q2 0 6 2t11 2q18 -1 20 -21q0 -16 -8 -52t-47 -70q-6 -6 -37 -21.5t-70 -32t-79 -30t-66 -13.5q-10 0 -10 11z" />
<glyph unicode="&#xb5;" horiz-adv-x="1630" d="M-57 96q0 78 43 170t112.5 172t159.5 134.5t184 54.5q35 0 66 -13.5t47 -50.5l2 -2q4 -4 6 -4q6 0 8 6q27 31 65 86.5t71 122.5q-106 10 -199.5 34.5t-163.5 68t-109.5 103.5t-39.5 138q0 72 30.5 122t75.5 81t96.5 45t91.5 14q90 0 159 -29.5t116 -82t71.5 -122 t24.5 -147.5q0 -39 -8 -78.5t-23 -80.5q86 0 169 8t165 24q47 72 109.5 152t122.5 145q53 55 106 99q47 37 101.5 67.5t103.5 30.5q12 0 27.5 -4t30 -15.5t23.5 -30.5t9 -48q0 -82 -43 -153t-117.5 -128t-174 -99t-212.5 -71q-53 -78 -103 -161t-89 -151.5t-62.5 -113.5 t-23.5 -47q0 -6 4 -6t10 8q74 68 143 121q59 45 126 82t120 37q4 0 15.5 -2t21.5 -9.5t18.5 -20.5t8.5 -38q0 -45 -30 -107.5t-66.5 -127t-66.5 -124t-30 -100.5q0 -35 35 -35q10 0 28.5 4.5t43.5 18.5q31 16 82 59q43 37 109.5 108t162.5 191l4 5q2 2 6 2l4 -5q2 -2 4 -6 q4 -8 5 -20q0 -12 -6.5 -29.5t-22.5 -40.5q-66 -90 -140.5 -164.5t-125.5 -113.5q-82 -61 -130.5 -75.5t-80.5 -14.5q-59 0 -79 27.5t-20 60.5q0 49 30 112.5t65.5 127t65.5 117.5t30 83q0 12 -6 14q-4 2 -6 2q-49 0 -123 -52t-152 -130t-147.5 -168t-106.5 -166 q-4 -10 -12 -14t-12 -4q-39 0 -45.5 19.5t-6.5 33.5q0 8 13.5 45t42.5 96q-74 -80 -130.5 -124t-96.5 -64.5t-63.5 -24.5t-33.5 -4q-59 0 -79.5 37t-20.5 78q0 39 8 68.5t10 33.5q0 6 -4 7q-2 0 -6 -5q-51 -59 -101.5 -93t-90.5 -51t-67.5 -21.5t-31.5 -4.5 q-33 0 -53.5 11.5t-31.5 29t-15 39t-4 41.5zM55 111q0 -16 7.5 -33t33.5 -17q43 0 90 28t92.5 70t85 94t70.5 101t49.5 90.5t18.5 61.5q-4 37 -20.5 49t-45.5 12q-45 0 -109.5 -47t-125 -116.5t-103.5 -148.5t-43 -144zM283 1130q0 -68 35.5 -120t97 -86.5t144.5 -56 t177 -27.5q16 41 25.5 82t9.5 82q0 68 -23.5 125t-63.5 99t-91 64.5t-109 22.5q-27 0 -61.5 -10.5t-66 -33t-53 -57t-21.5 -84.5zM432 63q0 -18 8.5 -36.5t36.5 -18.5q55 0 145.5 85t237.5 265q51 96 113.5 204.5t134.5 223.5q-66 -10 -132.5 -15t-131.5 -5h-43 q-31 -68 -70 -133.5t-79 -129t-76.5 -121.5t-63.5 -108q-20 -39 -39 -75q-16 -33 -28.5 -69t-12.5 -67zM1317 909q84 27 157.5 63t127 79t84 93t30.5 105q0 45 -28 45q-23 0 -68 -31.5t-86 -76.5q-12 -12 -36.5 -41t-53.5 -66t-62.5 -81t-64.5 -89z" />
<glyph unicode="&#xb6;" horiz-adv-x="1024" d="M-20 -111q0 2 2 5q0 12 13 43.5t34.5 75.5t50.5 96.5t57 105.5q68 125 154 272q4 8 4 11q0 6 -8 6q-121 0 -187.5 47t-66.5 145q0 113 63.5 205t176 158.5t269 102.5t341.5 36q45 0 79.5 -1t61.5 -3q31 -2 55 -6q10 0 19 -4q18 -9 18 -27q0 -6 -8 -14q-6 -6 -20.5 -11.5 t-43.5 -9.5q-23 0 -45 -10q-20 -10 -41.5 -28.5t-39.5 -53.5q-141 -231 -267 -450q-53 -94 -107.5 -194.5t-104.5 -199t-92 -189.5t-68 -165q-2 -2 -5 -6q-2 -6 -10 -6q-12 4 -22 12t-16.5 21.5t-6.5 35.5q0 31 27.5 98.5t73 159t102.5 195.5t117 209q141 246 319 536 q4 6 5 10.5t3 8.5t0 8q-6 8 -28 8q-23 0 -37.5 -2t-24.5 -6q-12 -4 -20 -10q-158 -244 -288 -470t-224 -405q-111 -207 -199 -389q-4 -10 -9 -13t-9 -3q-14 0 -23.5 8t-14.5 18.5t-7 19.5t-2 11v8zM225 637q0 -33 15.5 -49.5t62.5 -16.5q8 0 23.5 4.5t23.5 16.5 q41 74 95.5 161t101.5 165q55 90 112 178q0 2 3 4q2 2 2 6q0 6 -9 6q-59 0 -134 -44t-140.5 -113.5t-110.5 -153.5t-45 -164z" />
<glyph unicode="&#xb7;" horiz-adv-x="606" d="M272 258q0 25 11.5 48.5t29 43t39 30.5t39.5 11q20 0 31.5 -13t11.5 -36q0 -27 -12 -50.5t-30.5 -42t-39 -28.5t-39.5 -10q-20 0 -30.5 13.5t-10.5 33.5z" />
<glyph unicode="&#xb8;" horiz-adv-x="333" d="M59 -217q0 4 4.5 7t8.5 3q10 0 15 -5t30 -5t47 13.5t22 27.5q0 16 -12 22.5t-26.5 10.5t-26.5 9t-12 17q0 18 19 33.5t19 20.5q2 2 9 2q12 0 18 2q10 2 25 2q-6 -4 -13 -13q-4 -6 -9 -13t-5 -11q0 -6 12.5 -11.5t26.5 -11.5t26.5 -18.5t12.5 -32.5q0 -43 -37 -65.5 t-78 -22.5q-29 0 -52.5 10t-23.5 29z" />
<glyph unicode="&#xb9;" horiz-adv-x="1282" d="M-170 -31q20 53 48 109.5t58.5 115t62.5 116t62 108.5q70 121 148 241l20 15q25 14 78 14q4 0 10 -2q10 -4 11 -14q0 -6 -11 -27l-202 -332q0 -2 -2 -6q-4 -8 -4 -12t4 -4t12 6q4 4 27.5 26.5t60.5 55.5t82 69.5t91 67.5t90 51.5t77 20.5q23 0 41 -12.5t18 -51.5 q0 -18 -3 -35.5t-10 -42t-20.5 -60.5t-35.5 -89v-2q0 -2 -1 -3t-1 -3q0 -6 4 -6t12 8l23 25l63 63t89 83t103.5 83t106.5 64.5t98 25.5q23 0 44.5 -11.5t21.5 -45.5q0 -18 -10.5 -64.5t-59.5 -140.5q-33 -61 -59 -117q-23 -47 -42.5 -96t-19.5 -78q0 -12 6.5 -25.5 t34.5 -13.5q14 0 40 7t68 38t103.5 92.5t147.5 169.5q16 18 30.5 35.5t20.5 20.5l4 2q6 0 8 -7q2 -2 4 -6q4 -8 4 -18t-6 -27.5t-22 -40.5q-145 -184 -258 -268t-215 -84q-33 0 -51.5 11.5t-26.5 26.5t-9 29.5t-1 20.5q0 37 19.5 92.5t41.5 106.5q27 59 62 123q35 61 46 93 t11 46q0 10 -2 12l-2 2q-6 6 -17 6q-29 0 -72.5 -26.5t-94 -67.5t-101.5 -92t-97 -99t-80 -89t-50 -62q-23 -29 -48.5 -36t-41.5 -7q-4 0 -7.5 1t-5.5 1h-4q-14 0 -14 12q0 6 4 15q2 4 2 6q55 115 86 188.5t46.5 117.5t18.5 61.5t3 19.5q0 20 -19 20q-20 0 -62 -24.5 t-92.5 -64.5t-106.5 -91t-107.5 -104t-93.5 -105.5t-64 -93.5q-20 -35 -50 -43t-46 -8q-20 0 -24.5 5t-4.5 9z" />
<glyph unicode="&#xba;" horiz-adv-x="952" d="M74 360q0 2 1 3.5t1 3.5v2q0 2 6 11t18.5 20.5t32 20.5t45.5 9h475q41 0 63.5 1t39.5 5q2 2 4 2h8q10 0 10 -8q0 -4 -6 -14q-27 -45 -77 -55.5t-122 -10.5q-18 0 -66 1t-99 1h-132h-104.5t-50 -2t-18.5 -3t-11 -1q-18 0 -18 14zM264 680q0 78 39 165t99.5 160.5t135 122 t146.5 48.5q27 0 57.5 -13.5t30.5 -54.5q0 -18 -14 -18q-10 0 -19.5 9t-38.5 9q-45 0 -103 -41t-108.5 -104.5t-85 -138t-34.5 -142.5q0 -59 28.5 -79.5t59.5 -20.5q41 0 77.5 21.5t65.5 45.5q33 29 59 66q-35 20 -54 40.5t-19 67.5q0 41 20.5 81t52 71t68.5 50t68 19 q18 0 31.5 -11t13.5 -40t-12.5 -66.5t-28.5 -74.5q-18 -43 -43 -88h35q53 0 125.5 39t168.5 162l2 2q2 2 7 2q10 0 14 -15q2 -8 2 -14q0 -8 -4 -20.5t-16 -28.5q-47 -59 -91.5 -96t-85.5 -58.5t-76.5 -29t-64.5 -7.5h-27.5t-27.5 2q-37 -51 -84 -90q-41 -35 -96.5 -63.5 t-122.5 -28.5q-23 0 -49.5 8.5t-49 26.5t-37 49t-14.5 76zM662 840q0 -45 40 -62q18 35 35 68q14 29 24.5 59t10.5 53q0 14 -6 17q-4 2 -6 2q-12 0 -28.5 -9.5t-32 -26.5t-26.5 -43t-11 -58z" />
<glyph unicode="&#xbb;" horiz-adv-x="1009" d="M35 16q0 8 20 17q18 12 78 45t132.5 76t140 89t100.5 87q2 0 2 2v8q0 10 -4 18q-16 35 -66.5 112t-150.5 198q0 2 -2 4t-2 8q0 8 8 10q10 2 19 3t18 1q31 0 49 -14l16 -16q45 -43 85 -99.5t71 -107.5q37 -59 69 -121q0 -2 3 -4q2 -2 2 -10q0 -18 -21 -37 q-94 -66 -176 -121q-72 -47 -142.5 -92t-109.5 -62q-8 -4 -18 -8t-19.5 -6t-19.5 -2t-25.5 1t-32.5 5l-12 4q-12 4 -12 12zM385 10q0 8 14 15q76 43 146 88q59 39 123.5 84t111.5 84q2 2 4 6q4 8 4 16q0 6 -2 10q-35 68 -71 133q-33 55 -75 115t-85 103q0 2 -2 4t-2 10 q0 4 6 6l12 4q8 2 17 2q29 0 61.5 -24.5t64 -61.5t61.5 -82t53.5 -85t39 -70.5t19.5 -38.5q8 -14 10 -24.5t2 -18.5q0 -10 -2 -13q-2 -2 -2 -4q-2 -8 -20.5 -24.5t-46 -38t-62.5 -45t-72 -45.5q-84 -53 -190 -117q-4 -2 -13 -4q-16 -4 -36 -4q-2 0 -13.5 1t-24 3t-21.5 6 t-9 10z" />
<glyph unicode="&#xbc;" horiz-adv-x="1441" d="M-428 1020q0 49 25.5 83t62.5 55.5t76 31.5t65 10q49 0 88 -12t66 -29.5t41 -35t14 -27.5q0 -12 -10 -13q-6 0 -20 9q-39 23 -84.5 32t-77.5 9q-53 0 -84 -15.5t-47.5 -34t-21.5 -37t-5 -24.5q0 -43 34 -75t92 -53.5t135 -31.5t165 -10q66 0 126 4t114 12 q49 72 107.5 147t123.5 148q53 55 107 99q47 37 101 67.5t103 30.5q41 0 63.5 -28.5t22.5 -74.5q0 -49 -29.5 -111.5t-94 -123.5t-166 -114.5t-246.5 -84.5l-2 -2q-80 -117 -163 -262t-147 -311q-12 -33 -22 -66q-10 -29 -17.5 -60.5t-7.5 -60.5q0 -25 7.5 -42t29.5 -17 q66 0 134.5 55.5t129.5 132.5q-35 51 -34 129q0 53 21.5 108.5t57 103t79.5 77t89 29.5q49 0 50 -49q0 -33 -12.5 -78t-34 -94t-52 -102.5t-67.5 -104.5q27 -20 65 -21q47 0 105.5 35t111.5 103q10 10 19.5 20t19.5 23q33 74 89.5 183.5t144.5 242.5q-70 6 -113 37.5 t-43 91.5q0 25 17.5 58.5t56.5 33.5q4 0 6 -2q4 -4 4 -13q0 -16 -8 -25t-8 -36q0 -41 34.5 -62.5t90.5 -25.5q35 51 96 135t138 165t160 139.5t159 58.5q35 0 51 -22.5t16 -57.5q0 -53 -36 -127t-104.5 -144.5t-167.5 -126t-226 -71.5q-68 -104 -129.5 -213t-108.5 -209 t-74.5 -183t-27.5 -135q0 -25 7 -42t29 -17q66 0 134.5 55.5t130.5 132.5q-35 51 -35 129q0 53 21.5 108.5t57.5 103t80 77t89 29.5q49 0 49 -49q0 -33 -12.5 -78t-34 -94t-52 -102.5t-67.5 -104.5q27 -20 65 -21q47 0 105.5 35t112.5 103q29 29 47 55q0 2 2 4t6 2q2 0 9 -8 t7 -25q0 -10 -3 -25.5t-19 -33.5q-72 -92 -148 -134t-141 -42q-53 0 -94 24q-80 -98 -173.5 -164.5t-181.5 -66.5q-20 0 -41 4q-8 2 -14 6q-29 14 -40 44t-11 67q0 47 12.5 98t24.5 86q-57 -51 -112.5 -74.5t-104.5 -23.5q-53 0 -94 24q-80 -98 -173.5 -164.5t-181.5 -66.5 q-20 0 -41 4q-8 2 -14 6q-29 14 -40 44t-11 67q0 39 8 78t18 73q12 39 27 76q29 74 70 160q35 74 88 172t125 209q-45 -6 -93.5 -8t-101.5 -2q-104 0 -197.5 14t-164 43t-111.5 72t-41 100zM408 350q0 -51 10 -80q53 82 86 153.5t33 100.5q0 27 -13 27q-18 0 -38.5 -18.5 t-38 -47t-28.5 -64.5t-11 -71zM473 901q115 33 191.5 79t125 95t69 95t20.5 77q0 43 -29 43q-20 0 -46 -16.5t-50 -36.5q-29 -23 -58 -55q-14 -14 -37.5 -42t-53.5 -65t-63.5 -81t-68.5 -93zM1143 350q0 -51 10 -80q53 82 86 153.5t33 100.5q0 27 -12 27q-18 0 -39 -18.5 t-38.5 -47t-28.5 -64.5t-11 -71zM1180 864q92 23 166.5 74t128 109.5t83 113.5t29.5 82q0 20 -16 21q-31 0 -75 -32t-95 -85t-107.5 -126t-113.5 -157z" />
<glyph unicode="&#xbd;" horiz-adv-x="923" d="M-127 1032q0 55 43 87t98.5 48.5t108.5 20.5t76 4h16q23 0 23 -16q0 -10 -11 -15q-6 -2 -10 -2q-88 -10 -136 -27.5t-71 -37.5q-27 -23 -30 -50q0 -14 11 -29.5t38.5 -26.5t75 -18t118.5 -7q90 0 185 6q37 55 69.5 102t54.5 82q6 10 21 18q12 6 32.5 11.5t55.5 5.5 q18 -2 18 -14v-7q0 -2 -2 -4q-14 -23 -34 -51q-16 -25 -38 -57.5t-50 -73.5q90 8 181 16.5t183 16.5q29 41 55.5 78.5t40.5 60.5q6 10 21 18q12 6 32.5 11.5t55.5 5.5q18 -2 18 -14v-7q0 -2 -2 -4q-12 -20 -28 -43q-14 -20 -31 -44.5t-35 -53.5q29 2 59.5 2h61.5 q80 0 135 -10t90 -24.5t50.5 -31t15.5 -30.5t-19 -15q-10 0 -28 7q-39 10 -121 23t-201 13h-44t-44 -2q-6 -10 -12 -18t-11 -16q-45 -70 -95 -150t-98 -163t-93 -164t-79 -152.5t-54.5 -130t-20.5 -94.5q0 -23 6 -41.5t43 -18.5q20 0 53 16.5t83.5 58.5t120 114.5 t161.5 185.5q0 2 2 4t6 2q2 0 9.5 -8t7.5 -25q0 -10 -4.5 -24.5t-20.5 -34.5q-98 -129 -178 -204t-140.5 -111.5t-99.5 -47t-53 -10.5q-59 0 -80.5 39t-21.5 82q0 31 8 70t22 84q-82 -94 -148.5 -149.5t-115.5 -83t-82 -35t-45 -7.5q-59 0 -80.5 39t-21.5 82q0 72 40 177.5 t101.5 224t135 240.5t143.5 226q-92 -6 -150 -6q-188 0 -267 38t-79 89zM55 66q0 -23 6.5 -41.5t42.5 -18.5q20 0 53 15.5t82.5 57.5t118 113.5t158.5 182.5q66 133 151 273t164 263q11 17 25 37q-90 -6 -182 -13t-178 -15q-45 -70 -95.5 -150t-98.5 -163t-93 -164 t-79 -152.5t-54.5 -130t-20.5 -94.5z" />
<glyph unicode="&#xbe;" horiz-adv-x="1267" d="M-27 74q0 37 6.5 72.5t16.5 64.5q10 35 22 65q18 45 41 99q20 47 51 112.5t74 143.5q-45 8 -82 24q-31 14 -57.5 41t-26.5 70q0 29 11.5 45t25 25.5t24.5 12.5t13 3q20 0 21 -14v-7q0 -2 -2 -2q-14 -29 -15 -51q0 -31 19.5 -48t42.5 -28q27 -10 59 -16q115 197 229 352 q49 66 103.5 129.5t109 112.5t106.5 79t99 30q43 0 63.5 -26t20.5 -69q0 -49 -23.5 -114.5t-66.5 -136t-101.5 -140t-130 -128t-152.5 -97.5t-167 -49q-47 -84 -91 -173t-83 -186q-12 -29 -20 -59q-8 -27 -14.5 -56.5t-6.5 -58.5q0 -37 14.5 -59.5t53.5 -22.5q20 0 52 10.5 t79 38.5q33 20 80 62q41 35 100 95.5t137 156.5q33 74 88.5 181.5t141.5 236.5q23 35 60.5 88t86.5 115.5t105.5 125t114 112.5t114.5 82t108 32q35 0 51.5 -22.5t16.5 -57.5q0 -53 -36 -127t-104.5 -144.5t-168 -126t-225.5 -71.5q-68 -104 -129.5 -213t-108.5 -209 t-74.5 -183t-27.5 -135q0 -25 7 -42t29 -17q66 0 134.5 55.5t130.5 132.5q-35 51 -35 129q0 53 21.5 108.5t57 103t80 77t89.5 29.5q49 0 49 -49q0 -33 -12.5 -78t-34 -94t-52 -102.5t-67.5 -104.5q27 -20 65 -21q47 0 105.5 35t111.5 103q29 29 48 55q0 2 2 4t6 2q2 0 9 -8 t7 -25q0 -10 -3 -25.5t-19 -33.5q-72 -92 -148 -134t-141 -42q-53 0 -94 24q-80 -98 -173.5 -164.5t-181.5 -66.5q-20 0 -41 4q-8 2 -14 6q-29 14 -40 44t-11 67q0 47 11 95t24 83q-57 -61 -107.5 -105.5t-89.5 -72.5q-96 -66 -157.5 -86.5t-96.5 -20.5q-66 0 -91.5 45 t-25.5 103zM344 692q72 12 137.5 50t124 91.5t106.5 115t82.5 119.5t54 109.5t19.5 82.5q0 39 -28 38q-27 0 -62 -25.5t-74.5 -68.5t-81.5 -97t-83 -112q-94 -133 -195 -303zM969 350q0 -51 10 -80q53 82 86 153.5t33 100.5q0 27 -13 27q-18 0 -38.5 -18.5t-38 -47 t-28.5 -64.5t-11 -71zM1006 864q92 23 166.5 74t128 109.5t83 113.5t29.5 82q0 20 -16 21q-31 0 -75 -32t-95 -85t-107.5 -126t-113.5 -157z" />
<glyph unicode="&#xbf;" horiz-adv-x="817" d="M-264 -242q0 70 41 128.5t103.5 112.5t140 107.5t151.5 110.5t135.5 121.5t91.5 142.5q0 4 4 6q8 4 15 5q10 0 28.5 -13.5t18.5 -48.5q0 -53 -45 -104.5t-113.5 -103.5t-148.5 -104t-148.5 -110.5t-114 -124t-45.5 -139.5q4 -29 19 -51q12 -20 37.5 -37.5t70.5 -22.5 q0 51 29 118t81 126.5t124 100t160 40.5q8 0 26.5 -2t37 -12t32.5 -29.5t14 -56.5q0 -78 -47 -138.5t-112.5 -103.5t-135 -66.5t-112.5 -29.5q10 -20 32.5 -35.5t63.5 -25.5l8 -4q8 -4 8 -13q0 -16 -18 -22t-41 -6q-43 0 -84 25.5t-55 70.5h-21q-84 0 -130 24.5t-68.5 57.5 t-27.5 63.5t-5 42.5zM57 -362q55 6 111.5 29.5t101.5 58t74 79t29 95.5q0 14 -8.5 28.5t-36.5 14.5q-57 0 -107.5 -32t-86.5 -79t-56.5 -99t-20.5 -95zM467 623q0 18 10 41.5t28.5 43t42 34t48.5 14.5q14 0 26.5 -6t12.5 -29q0 -49 -18.5 -78t-41 -44t-42 -19.5t-23.5 -4.5 q-43 0 -43 48z" />
<glyph unicode="&#xc0;" horiz-adv-x="1511" d="M-139 233q0 145 59.5 275.5t155.5 229t217 155.5t246 57q47 0 86 -8t67.5 -18.5t46 -21.5t23.5 -17q2 -4 6 -8q6 -6 6 -17q0 -16 -18 -16q-2 0 -4 1t-4 1h-5q-37 16 -75.5 21t-73.5 5q-143 0 -265 -63.5t-210 -160.5t-137.5 -211.5t-49.5 -217.5q0 -68 17.5 -112 t40.5 -70q25 -31 59 -47q29 -14 58.5 -19.5t60.5 -5.5q55 0 108.5 14.5t94.5 32.5q49 23 90 47q51 29 111.5 81.5t121.5 113.5q-29 10 -52.5 19.5t-39.5 17.5q-18 8 -31 18q-84 53 -110.5 103.5t-26.5 87.5q0 55 32 91t79 56.5t100 27.5t94 7q61 0 99 -6q23 -4 41 -6 q43 -10 78.5 -22.5t66.5 -29.5q96 111 179 194t149 142q10 31 18 54.5t14 40.5q8 20 15 32q14 37 47 93.5t79 108.5t100 90t110 38q18 0 39.5 -10t21.5 -51q0 -55 -41 -110.5t-96 -106t-112.5 -94.5t-92.5 -78q-8 -23 -12 -41q-2 -8 -4 -17q-31 -88 -56 -186 q-23 -86 -44 -193.5t-35 -224.5q47 10 94 25.5t100 29.5q8 2 16 6q16 6 29 7q8 0 8 -7q0 -10 -11 -24t-26 -21q-115 -49 -217 -73q-6 -70 -6 -140q0 -33 3 -89t16.5 -119.5t40 -125t71.5 -104.5q6 -6 6 -12q0 -14 -12 -19q-6 -2 -12 -2q-31 0 -70 26t-72.5 84t-57 152.5 t-23.5 229.5v47.5t2 46.5q-47 -8 -90 -11t-84 -3q-66 0 -123.5 8t-104.5 18q-35 -35 -74.5 -70.5t-82.5 -70.5q-66 -53 -140 -94q-63 -35 -144 -63.5t-169 -28.5q-41 0 -80 8t-78 27q-41 23 -75 61q-29 35 -52.5 92t-23.5 143zM537 510q0 -39 33.5 -75t74.5 -62 q49 -31 109 -58q78 80 140 151.5t89 102.5q-10 6 -22.5 11.5t-24.5 9.5q-29 8 -59 16q-27 6 -61 10.5t-73 4.5q-35 0 -71.5 -7.5t-66.5 -20.5t-49 -33.5t-19 -49.5zM840 289q41 -10 89 -15.5t105 -5.5q35 0 73 2t79 9q2 10 3 19t1 19q-2 37 -19 74q-14 33 -42.5 71t-86.5 75 q-20 -25 -37.5 -50.5t-37.5 -48.5q-12 -20 -33 -43q-16 -20 -40 -46.5t-54 -59.5zM1083 584q31 -20 52.5 -41t38.5 -37q18 -18 28 -35q6 -8 8 -8l4 4l3 2q16 98 40.5 186t47.5 164q-53 -53 -110.5 -112.5t-111.5 -122.5zM1497 1081q14 10 48 37t70 60.5t62.5 70.5t26.5 68 q0 18 -16 18q-35 0 -69 -40t-63 -87q-33 -55 -59 -127zM1579 1722q2 20 20 21q8 0 13 -2l4 -2q66 -41 117 -79t86 -67q41 -35 71 -63q8 -9 8 -17q0 -10 -12 -10q-35 6 -76 19q-35 10 -79.5 28.5t-96.5 48.5q-39 35 -47 71t-8 52z" />
<glyph unicode="&#xc1;" horiz-adv-x="1511" d="M-139 233q0 145 59.5 275.5t155.5 229t217 155.5t246 57q47 0 86 -8t67.5 -18.5t46 -21.5t23.5 -17q2 -4 6 -8q6 -6 6 -17q0 -16 -18 -16q-2 0 -4 1t-4 1h-5q-37 16 -75.5 21t-73.5 5q-143 0 -265 -63.5t-210 -160.5t-137.5 -211.5t-49.5 -217.5q0 -68 17.5 -112 t40.5 -70q25 -31 59 -47q29 -14 58.5 -19.5t60.5 -5.5q55 0 108.5 14.5t94.5 32.5q49 23 90 47q51 29 111.5 81.5t121.5 113.5q-29 10 -52.5 19.5t-39.5 17.5q-18 8 -31 18q-84 53 -110.5 103.5t-26.5 87.5q0 55 32 91t79 56.5t100 27.5t94 7q61 0 99 -6q23 -4 41 -6 q43 -10 78.5 -22.5t66.5 -29.5q96 111 179 194t149 142q10 31 18 54.5t14 40.5q8 20 15 32q14 37 47 93.5t79 108.5t100 90t110 38q18 0 39.5 -10t21.5 -51q0 -55 -41 -110.5t-96 -106t-112.5 -94.5t-92.5 -78q-8 -23 -12 -41q-2 -8 -4 -17q-31 -88 -56 -186 q-23 -86 -44 -193.5t-35 -224.5q47 10 94 25.5t100 29.5q8 2 16 6q16 6 29 7q8 0 8 -7q0 -10 -11 -24t-26 -21q-115 -49 -217 -73q-6 -70 -6 -140q0 -33 3 -89t16.5 -119.5t40 -125t71.5 -104.5q6 -6 6 -12q0 -14 -12 -19q-6 -2 -12 -2q-31 0 -70 26t-72.5 84t-57 152.5 t-23.5 229.5v47.5t2 46.5q-47 -8 -90 -11t-84 -3q-66 0 -123.5 8t-104.5 18q-35 -35 -74.5 -70.5t-82.5 -70.5q-66 -53 -140 -94q-63 -35 -144 -63.5t-169 -28.5q-41 0 -80 8t-78 27q-41 23 -75 61q-29 35 -52.5 92t-23.5 143zM537 510q0 -39 33.5 -75t74.5 -62 q49 -31 109 -58q78 80 140 151.5t89 102.5q-10 6 -22.5 11.5t-24.5 9.5q-29 8 -59 16q-27 6 -61 10.5t-73 4.5q-35 0 -71.5 -7.5t-66.5 -20.5t-49 -33.5t-19 -49.5zM840 289q41 -10 89 -15.5t105 -5.5q35 0 73 2t79 9q2 10 3 19t1 19q-2 37 -19 74q-14 33 -42.5 71t-86.5 75 q-20 -25 -37.5 -50.5t-37.5 -48.5q-12 -20 -33 -43q-16 -20 -40 -46.5t-54 -59.5zM1083 584q31 -20 52.5 -41t38.5 -37q18 -18 28 -35q6 -8 8 -8l4 4l3 2q16 98 40.5 186t47.5 164q-53 -53 -110.5 -112.5t-111.5 -122.5zM1497 1081q14 10 48 37t70 60.5t62.5 70.5t26.5 68 q0 18 -16 18q-35 0 -69 -40t-63 -87q-33 -55 -59 -127zM1751 1505q0 4 1 5t1 3v5q33 31 76 65q37 29 87 68t116 80q2 0 6 2t10 2q18 -1 20 -21q0 -16 -8 -52t-47 -71q-6 -6 -36.5 -21.5t-69.5 -31.5t-79 -29.5t-67 -13.5q-10 0 -10 10z" />
<glyph unicode="&#xc2;" horiz-adv-x="1511" d="M-139 233q0 145 59.5 275.5t155.5 229t217 155.5t246 57q47 0 86 -8t67.5 -18.5t46 -21.5t23.5 -17q2 -4 6 -8q6 -6 6 -17q0 -16 -18 -16q-2 0 -4 1t-4 1h-5q-37 16 -75.5 21t-73.5 5q-143 0 -265 -63.5t-210 -160.5t-137.5 -211.5t-49.5 -217.5q0 -68 17.5 -112 t40.5 -70q25 -31 59 -47q29 -14 58.5 -19.5t60.5 -5.5q55 0 108.5 14.5t94.5 32.5q49 23 90 47q51 29 111.5 81.5t121.5 113.5q-29 10 -52.5 19.5t-39.5 17.5q-18 8 -31 18q-84 53 -110.5 103.5t-26.5 87.5q0 55 32 91t79 56.5t100 27.5t94 7q61 0 99 -6q23 -4 41 -6 q43 -10 78.5 -22.5t66.5 -29.5q96 111 179 194t149 142q10 31 18 54.5t14 40.5q8 20 15 32q14 37 47 93.5t79 108.5t100 90t110 38q18 0 39.5 -10t21.5 -51q0 -55 -41 -110.5t-96 -106t-112.5 -94.5t-92.5 -78q-8 -23 -12 -41q-2 -8 -4 -17q-31 -88 -56 -186 q-23 -86 -44 -193.5t-35 -224.5q47 10 94 25.5t100 29.5q8 2 16 6q16 6 29 7q8 0 8 -7q0 -10 -11 -24t-26 -21q-115 -49 -217 -73q-6 -70 -6 -140q0 -33 3 -89t16.5 -119.5t40 -125t71.5 -104.5q6 -6 6 -12q0 -14 -12 -19q-6 -2 -12 -2q-31 0 -70 26t-72.5 84t-57 152.5 t-23.5 229.5v47.5t2 46.5q-47 -8 -90 -11t-84 -3q-66 0 -123.5 8t-104.5 18q-35 -35 -74.5 -70.5t-82.5 -70.5q-66 -53 -140 -94q-63 -35 -144 -63.5t-169 -28.5q-41 0 -80 8t-78 27q-41 23 -75 61q-29 35 -52.5 92t-23.5 143zM537 510q0 -39 33.5 -75t74.5 -62 q49 -31 109 -58q78 80 140 151.5t89 102.5q-10 6 -22.5 11.5t-24.5 9.5q-29 8 -59 16q-27 6 -61 10.5t-73 4.5q-35 0 -71.5 -7.5t-66.5 -20.5t-49 -33.5t-19 -49.5zM840 289q41 -10 89 -15.5t105 -5.5q35 0 73 2t79 9q2 10 3 19t1 19q-2 37 -19 74q-14 33 -42.5 71t-86.5 75 q-20 -25 -37.5 -50.5t-37.5 -48.5q-12 -20 -33 -43q-16 -20 -40 -46.5t-54 -59.5zM1083 584q31 -20 52.5 -41t38.5 -37q18 -18 28 -35q6 -8 8 -8l4 4l3 2q16 98 40.5 186t47.5 164q-53 -53 -110.5 -112.5t-111.5 -122.5zM1497 1081q14 10 48 37t70 60.5t62.5 70.5t26.5 68 q0 18 -16 18q-35 0 -69 -40t-63 -87q-33 -55 -59 -127zM1505 1475q0 4 2 6q33 31 76 67q37 31 90 71t119 81q4 2 10 4q12 4 23 4q10 0 20 -4t19 -16q41 -59 61.5 -105.5t30.5 -79.5q10 -36 12 -65q-2 -2 -4 -6q-4 -8 -12 -9q-14 0 -38 20.5t-47.5 47.5t-43 55.5t-27.5 42.5 q-35 -29 -78 -52.5t-83 -40.5t-69.5 -26.5t-37.5 -9.5q-23 0 -23 15z" />
<glyph unicode="&#xc3;" horiz-adv-x="1511" d="M-139 233q0 145 59.5 275.5t155.5 229t217 155.5t246 57q47 0 86 -8t67.5 -18.5t46 -21.5t23.5 -17q2 -4 6 -8q6 -6 6 -17q0 -16 -18 -16q-2 0 -4 1t-4 1h-5q-37 16 -75.5 21t-73.5 5q-143 0 -265 -63.5t-210 -160.5t-137.5 -211.5t-49.5 -217.5q0 -68 17.5 -112 t40.5 -70q25 -31 59 -47q29 -14 58.5 -19.5t60.5 -5.5q55 0 108.5 14.5t94.5 32.5q49 23 90 47q51 29 111.5 81.5t121.5 113.5q-29 10 -52.5 19.5t-39.5 17.5q-18 8 -31 18q-84 53 -110.5 103.5t-26.5 87.5q0 55 32 91t79 56.5t100 27.5t94 7q61 0 99 -6q23 -4 41 -6 q43 -10 78.5 -22.5t66.5 -29.5q96 111 179 194t149 142q10 31 18 54.5t14 40.5q8 20 15 32q14 37 47 93.5t79 108.5t100 90t110 38q18 0 39.5 -10t21.5 -51q0 -55 -41 -110.5t-96 -106t-112.5 -94.5t-92.5 -78q-8 -23 -12 -41q-2 -8 -4 -17q-31 -88 -56 -186 q-23 -86 -44 -193.5t-35 -224.5q47 10 94 25.5t100 29.5q8 2 16 6q16 6 29 7q8 0 8 -7q0 -10 -11 -24t-26 -21q-115 -49 -217 -73q-6 -70 -6 -140q0 -33 3 -89t16.5 -119.5t40 -125t71.5 -104.5q6 -6 6 -12q0 -14 -12 -19q-6 -2 -12 -2q-31 0 -70 26t-72.5 84t-57 152.5 t-23.5 229.5v47.5t2 46.5q-47 -8 -90 -11t-84 -3q-66 0 -123.5 8t-104.5 18q-35 -35 -74.5 -70.5t-82.5 -70.5q-66 -53 -140 -94q-63 -35 -144 -63.5t-169 -28.5q-41 0 -80 8t-78 27q-41 23 -75 61q-29 35 -52.5 92t-23.5 143zM537 510q0 -39 33.5 -75t74.5 -62 q49 -31 109 -58q78 80 140 151.5t89 102.5q-10 6 -22.5 11.5t-24.5 9.5q-29 8 -59 16q-27 6 -61 10.5t-73 4.5q-35 0 -71.5 -7.5t-66.5 -20.5t-49 -33.5t-19 -49.5zM840 289q41 -10 89 -15.5t105 -5.5q35 0 73 2t79 9q2 10 3 19t1 19q-2 37 -19 74q-14 33 -42.5 71t-86.5 75 q-20 -25 -37.5 -50.5t-37.5 -48.5q-12 -20 -33 -43q-16 -20 -40 -46.5t-54 -59.5zM1083 584q31 -20 52.5 -41t38.5 -37q18 -18 28 -35q6 -8 8 -8l4 4l3 2q16 98 40.5 186t47.5 164q-53 -53 -110.5 -112.5t-111.5 -122.5zM1497 1081q14 10 48 37t70 60.5t62.5 70.5t26.5 68 q0 18 -16 18q-35 0 -69 -40t-63 -87q-33 -55 -59 -127zM1589 1530q0 29 36 50.5t83 21.5q29 0 48.5 -6.5t36.5 -13.5t35.5 -13t43.5 -6q23 0 37 6t23.5 14t16.5 14.5t15 6.5q14 0 14 -23q0 -31 -11 -51.5t-27.5 -31.5t-34 -16t-29.5 -5q-31 0 -53.5 9t-44 20.5t-44 20.5 t-55.5 9q-39 0 -52 -10t-25 -10t-13 14z" />
<glyph unicode="&#xc4;" horiz-adv-x="1511" d="M-139 233q0 145 59.5 275.5t155.5 229t217 155.5t246 57q47 0 86 -8t67.5 -18.5t46 -21.5t23.5 -17q2 -4 6 -8q6 -6 6 -17q0 -16 -18 -16q-2 0 -4 1t-4 1h-5q-37 16 -75.5 21t-73.5 5q-143 0 -265 -63.5t-210 -160.5t-137.5 -211.5t-49.5 -217.5q0 -68 17.5 -112 t40.5 -70q25 -31 59 -47q29 -14 58.5 -19.5t60.5 -5.5q55 0 108.5 14.5t94.5 32.5q49 23 90 47q51 29 111.5 81.5t121.5 113.5q-29 10 -52.5 19.5t-39.5 17.5q-18 8 -31 18q-84 53 -110.5 103.5t-26.5 87.5q0 55 32 91t79 56.5t100 27.5t94 7q61 0 99 -6q23 -4 41 -6 q43 -10 78.5 -22.5t66.5 -29.5q96 111 179 194t149 142q10 31 18 54.5t14 40.5q8 20 15 32q14 37 47 93.5t79 108.5t100 90t110 38q18 0 39.5 -10t21.5 -51q0 -55 -41 -110.5t-96 -106t-112.5 -94.5t-92.5 -78q-8 -23 -12 -41q-2 -8 -4 -17q-31 -88 -56 -186 q-23 -86 -44 -193.5t-35 -224.5q47 10 94 25.5t100 29.5q8 2 16 6q16 6 29 7q8 0 8 -7q0 -10 -11 -24t-26 -21q-115 -49 -217 -73q-6 -70 -6 -140q0 -33 3 -89t16.5 -119.5t40 -125t71.5 -104.5q6 -6 6 -12q0 -14 -12 -19q-6 -2 -12 -2q-31 0 -70 26t-72.5 84t-57 152.5 t-23.5 229.5v47.5t2 46.5q-47 -8 -90 -11t-84 -3q-66 0 -123.5 8t-104.5 18q-35 -35 -74.5 -70.5t-82.5 -70.5q-66 -53 -140 -94q-63 -35 -144 -63.5t-169 -28.5q-41 0 -80 8t-78 27q-41 23 -75 61q-29 35 -52.5 92t-23.5 143zM537 510q0 -39 33.5 -75t74.5 -62 q49 -31 109 -58q78 80 140 151.5t89 102.5q-10 6 -22.5 11.5t-24.5 9.5q-29 8 -59 16q-27 6 -61 10.5t-73 4.5q-35 0 -71.5 -7.5t-66.5 -20.5t-49 -33.5t-19 -49.5zM840 289q41 -10 89 -15.5t105 -5.5q35 0 73 2t79 9q2 10 3 19t1 19q-2 37 -19 74q-14 33 -42.5 71t-86.5 75 q-20 -25 -37.5 -50.5t-37.5 -48.5q-12 -20 -33 -43q-16 -20 -40 -46.5t-54 -59.5zM1083 584q31 -20 52.5 -41t38.5 -37q18 -18 28 -35q6 -8 8 -8l4 4l3 2q16 98 40.5 186t47.5 164q-53 -53 -110.5 -112.5t-111.5 -122.5zM1497 1081q14 10 48 37t70 60.5t62.5 70.5t26.5 68 q0 18 -16 18q-35 0 -69 -40t-63 -87q-33 -55 -59 -127zM1538 1536q0 25 11.5 48.5t29.5 42t39.5 29.5t40.5 11q43 0 43 -47q0 -27 -12.5 -51.5t-31 -43t-39 -28.5t-36.5 -10q-23 0 -34 14.5t-11 34.5zM1839 1536q0 25 11.5 48.5t29.5 42t40 29.5t40 11q43 0 43 -47 q0 -27 -12.5 -51.5t-30.5 -43t-38.5 -28.5t-37.5 -10q-23 0 -34 14.5t-11 34.5z" />
<glyph unicode="&#xc5;" horiz-adv-x="1511" d="M-139 233q0 145 59.5 275.5t155.5 229t217 155.5t246 57q47 0 86 -8t67.5 -18.5t46 -21.5t23.5 -17q2 -4 6 -8q6 -6 6 -17q0 -16 -18 -16q-2 0 -4 1t-4 1h-5q-37 16 -75.5 21t-73.5 5q-143 0 -265 -63.5t-210 -160.5t-137.5 -211.5t-49.5 -217.5q0 -68 17.5 -112 t40.5 -70q25 -31 59 -47q29 -14 58.5 -19.5t60.5 -5.5q55 0 108.5 14.5t94.5 32.5q49 23 90 47q51 29 111.5 81.5t121.5 113.5q-29 10 -52.5 19.5t-39.5 17.5q-18 8 -31 18q-84 53 -110.5 103.5t-26.5 87.5q0 55 32 91t79 56.5t100 27.5t94 7q61 0 99 -6q23 -4 41 -6 q43 -10 78.5 -22.5t66.5 -29.5q96 111 179 194t149 142q10 31 18 54.5t14 40.5q8 20 15 32q14 37 47 93.5t79 108.5t100 90t110 38q18 0 39.5 -10t21.5 -51q0 -55 -41 -110.5t-96 -106t-112.5 -94.5t-92.5 -78q-8 -23 -12 -41q-2 -8 -4 -17q-31 -88 -56 -186 q-23 -86 -44 -193.5t-35 -224.5q47 10 94 25.5t100 29.5q8 2 16 6q16 6 29 7q8 0 8 -7q0 -10 -11 -24t-26 -21q-115 -49 -217 -73q-6 -70 -6 -140q0 -33 3 -89t16.5 -119.5t40 -125t71.5 -104.5q6 -6 6 -12q0 -14 -12 -19q-6 -2 -12 -2q-31 0 -70 26t-72.5 84t-57 152.5 t-23.5 229.5v47.5t2 46.5q-47 -8 -90 -11t-84 -3q-66 0 -123.5 8t-104.5 18q-35 -35 -74.5 -70.5t-82.5 -70.5q-66 -53 -140 -94q-63 -35 -144 -63.5t-169 -28.5q-41 0 -80 8t-78 27q-41 23 -75 61q-29 35 -52.5 92t-23.5 143zM537 510q0 -39 33.5 -75t74.5 -62 q49 -31 109 -58q78 80 140 151.5t89 102.5q-10 6 -22.5 11.5t-24.5 9.5q-29 8 -59 16q-27 6 -61 10.5t-73 4.5q-35 0 -71.5 -7.5t-66.5 -20.5t-49 -33.5t-19 -49.5zM840 289q41 -10 89 -15.5t105 -5.5q35 0 73 2t79 9q2 10 3 19t1 19q-2 37 -19 74q-14 33 -42.5 71t-86.5 75 q-20 -25 -37.5 -50.5t-37.5 -48.5q-12 -20 -33 -43q-16 -20 -40 -46.5t-54 -59.5zM1083 584q31 -20 52.5 -41t38.5 -37q18 -18 28 -35q6 -8 8 -8l4 4l3 2q16 98 40.5 186t47.5 164q-53 -53 -110.5 -112.5t-111.5 -122.5zM1497 1081q14 10 48 37t70 60.5t62.5 70.5t26.5 68 q0 18 -16 18q-35 0 -69 -40t-63 -87q-33 -55 -59 -127zM1731 1534q0 33 15 63.5t37.5 53t51.5 37t55 14.5q29 0 45.5 -20.5t16.5 -51.5q0 -37 -16.5 -66.5t-41 -52t-52 -35t-52.5 -12.5q-29 0 -44 19.5t-15 50.5zM1782 1554q0 -35 30 -34q23 0 39.5 12t27.5 27.5t16.5 32 t5.5 22.5q0 35 -33 35q-12 0 -27.5 -8.5t-29 -21.5t-21.5 -29.5t-8 -35.5z" />
<glyph unicode="&#xc6;" horiz-adv-x="2082" d="M-139 233q0 145 59.5 275.5t155.5 229t217 155.5t246 57q47 0 86 -8t67.5 -18.5t46 -21.5t23.5 -17q2 -4 6 -8q6 -6 6 -17q0 -16 -18 -16q-2 0 -4 1t-4 1h-5q-37 16 -75.5 21t-73.5 5q-143 0 -265 -63.5t-210 -160.5t-137.5 -211.5t-49.5 -217.5q0 -68 17.5 -112 t40.5 -70q25 -31 59 -47q29 -14 58.5 -19.5t60.5 -5.5q55 0 108.5 14.5t94.5 32.5q49 23 90 47q51 29 111.5 81.5t121.5 113.5q-29 10 -52.5 19.5t-39.5 17.5q-18 8 -31 18q-84 53 -110.5 103.5t-26.5 87.5q0 55 32 91t79 56.5t100 27.5t94 7q61 0 99 -6q23 -4 41 -6 q43 -10 78.5 -22.5t66.5 -29.5q96 111 179 194t149 142q10 31 18 54.5t14 40.5q8 20 15 32q14 37 47 93.5t79 108.5t100 90t110 38q18 0 39.5 -10t21.5 -51q0 -39 -22 -80q88 -2 155.5 -14.5t134 -27t142 -25.5t176.5 -11q72 0 134 10t107 39q2 2 7 4q4 2 10 2t8 -2l4 -4 q2 -2 2 -10q0 -25 -32.5 -50.5t-84 -45t-114 -32.5t-121.5 -13q-96 0 -171 15t-141.5 33.5t-130 36t-139.5 19.5q-31 -35 -67.5 -67.5t-73.5 -61.5t-69.5 -55.5t-55.5 -48.5q-8 -23 -12 -41q-2 -8 -4 -17q-31 -88 -56 -186q-23 -86 -44 -193.5t-35 -224.5q35 8 70.5 18.5 t74.5 20.5q27 41 46 76t34 61q16 31 31 57q12 31 26 52q-45 -2 -75.5 -8.5t-49.5 -12.5q-23 -8 -33 -16q-2 -2 -6 -2q-8 0 -8 10q0 6 8.5 21.5t31 31t63 28.5t106.5 19q86 154 155.5 237t118.5 124q57 47 105 57q2 2 6 2h10q12 0 15 -6v-2q0 -4 -4.5 -11t-24.5 -24 q-29 -20 -66 -69q-33 -41 -80 -115t-110 -197q16 -2 39.5 -5t83.5 -3q59 0 126.5 10.5t106.5 40.5q2 0 4 2t11 2q10 0 10 -10q0 -8 -9.5 -29.5t-33 -45t-64.5 -41t-102 -17.5q-72 0 -126 12.5t-83 12.5q-23 -39 -60.5 -104.5t-74.5 -123.5q-27 -43 -64 -90 q-31 -41 -74.5 -91t-101.5 -101q213 -43 392.5 -108.5t348.5 -126t335.5 -103.5t353.5 -43q141 0 284.5 34.5t268.5 131.5h6q4 0 5 1t5 1q6 0 10 -4q2 -3 2 -5q0 -16 -14 -34q-8 -8 -16 -19q-70 -72 -156 -112.5t-166 -60t-143.5 -25t-91.5 -5.5q-188 0 -364.5 53.5 t-353.5 124t-361.5 141.5t-387.5 105q4 -41 11.5 -89t21.5 -95t37.5 -91t58.5 -77q6 -6 6 -12q0 -14 -12 -19q-6 -2 -12 -2q-31 0 -70 26t-72.5 84t-57 152.5t-23.5 229.5v47.5t2 46.5q-47 -8 -90 -11t-84 -3q-66 0 -123.5 8t-104.5 18q-35 -35 -74.5 -70.5t-82.5 -70.5 q-66 -53 -140 -94q-63 -35 -144 -63.5t-169 -28.5q-41 0 -80 8t-78 27q-41 23 -75 61q-29 35 -52.5 92t-23.5 143zM537 510q0 -39 33.5 -75t74.5 -62q49 -31 109 -58q78 80 140 151.5t89 102.5q-10 6 -22.5 11.5t-24.5 9.5q-29 8 -59 16q-27 6 -61 10.5t-73 4.5 q-35 0 -71.5 -7.5t-66.5 -20.5t-49 -33.5t-19 -49.5zM840 289q41 -10 89 -15.5t105 -5.5q35 0 73 2t79 9q2 10 3 19t1 19q-2 37 -19 74q-14 33 -42.5 71t-86.5 75q-20 -25 -37.5 -50.5t-37.5 -48.5q-12 -20 -33 -43q-16 -20 -40 -46.5t-54 -59.5zM1083 584q31 -20 52.5 -41 t38.5 -37q18 -18 28 -35q6 -8 8 -8l4 4l3 2q16 98 40.5 186t47.5 164q-53 -53 -110.5 -112.5t-111.5 -122.5zM1290 129q31 35 58.5 70.5t54.5 72.5q-57 -18 -107 -30q-6 -57 -6 -113zM1497 1081q14 10 48 37t70 60.5t62.5 70.5t26.5 68q0 18 -16 18q-35 0 -69 -40t-63 -87 q-33 -55 -59 -127z" />
<glyph unicode="&#xc7;" horiz-adv-x="1218" d="M-279 1036q0 33 18.5 95.5t71 124t147.5 107.5t247 46q39 0 88 -10t92 -26.5t72.5 -35t29.5 -37.5q0 -8 -9 -10t-17 -2t-24.5 9.5t-49.5 20.5t-84 20.5t-129 9.5q-131 0 -202.5 -43t-106.5 -97.5t-42 -103.5t-7 -64q0 -70 22.5 -124t59 -93t84 -65.5t96.5 -44.5 q115 -41 262 -45q29 49 78 112.5t113.5 130t142.5 131t164 114.5t177 81t181 31q53 0 81 -17.5t40 -40.5q14 -24 16 -57q0 -59 -57 -150.5t-170 -178.5t-280 -150.5t-386 -65.5q-49 -84 -77.5 -151.5t-45.5 -118.5q-18 -59 -26 -107q-2 -12 -4 -26q-2 -12 -3 -29.5t-1 -38.5 q0 -37 10 -84t37.5 -90t78 -72.5t132.5 -29.5q109 0 201 54t159.5 134t105 169t37.5 159q0 53 -24.5 87t-79.5 34q-57 0 -111.5 -35t-97.5 -88t-71.5 -120t-36.5 -128q0 -8 -2 -16q-4 -16 -19 -17q-33 0 -33 64q0 49 23.5 117.5t73 133t124 109.5t177.5 45q92 0 132 -48 t40 -124q0 -82 -43 -180t-120 -185t-180.5 -150.5t-226.5 -76.5l-8 -8l-14 -14q-6 -6 -11.5 -13.5t-5.5 -13.5t14.5 -11t33 -13.5t33 -22.5t14.5 -41q0 -29 -12.5 -48.5t-33 -31.5t-45 -17t-47.5 -5q-37 0 -60.5 14t-23.5 33q0 6 6.5 8t10.5 2q16 0 24.5 -4t22.5 -4 q29 0 53.5 13t24.5 38q0 18 -14.5 26.5t-33 12.5t-32.5 9t-14 16q0 14 20.5 36.5t30.5 30.5q0 4 4 4q-94 2 -159.5 35t-105.5 83t-58.5 112.5t-18.5 124.5q0 53 6 86q4 20 6 34q8 45 25 99q14 47 39.5 107.5t64.5 131.5q-164 4 -291 51q-55 20 -107 51t-93 77.5t-67 107.5 t-26 141zM481 670q88 0 178.5 23.5t173 62.5t155.5 89t127 103t85 104.5t31 94.5q0 16 -8 27q-6 10 -20.5 17t-43.5 7q-59 0 -120.5 -22.5t-120 -59.5t-113.5 -85t-105 -97q-113 -117 -219 -264z" />
<glyph unicode="&#xc8;" horiz-adv-x="1060" d="M-332 -70q0 31 22.5 62t67.5 55.5t115 39.5t166 15q41 0 88 -3t100 -13q68 66 124.5 143.5t97.5 145.5q49 80 88 157q12 31 26 52q-45 -2 -75.5 -8.5t-49.5 -12.5q-23 -8 -32 -16q-2 -2 -7 -2q-8 0 -8 10q0 6 8.5 21.5t31 31t63.5 28.5t106 19q86 154 155.5 237 t118.5 124q57 47 105 57q2 2 6 2h10q12 0 15 -6v-2q0 -4 -4.5 -11t-24.5 -24q-29 -20 -66 -69q-33 -41 -80 -115t-110 -197q16 -2 39.5 -5t83.5 -3q59 0 126.5 10.5t106.5 40.5q2 0 4 2t11 2q10 0 10 -10q0 -8 -9.5 -29.5t-33 -45t-64.5 -41t-102 -17.5q-72 0 -126 12.5 t-83 12.5q-23 -39 -60.5 -104.5t-74.5 -123.5q-27 -43 -64 -90q-31 -41 -74.5 -91t-101.5 -101q213 -43 392.5 -108.5t348.5 -126t335.5 -103.5t353.5 -43q141 0 284.5 34.5t268.5 131.5h6q4 0 5 1t5 1q6 0 10 -4q2 -3 2 -5q0 -16 -14 -34q-8 -8 -16 -19 q-70 -72 -156 -112.5t-166 -60t-143.5 -25t-91.5 -5.5q-127 0 -248 26t-240 66t-237.5 89t-240.5 96t-251 88t-266 63q-51 -37 -96 -66.5t-93.5 -50t-103.5 -31.5t-127 -11q-82 0 -124 22.5t-42 46.5zM-215 -43q0 -20 27.5 -28.5t48.5 -8.5q55 0 106 14.5t92 33t70 38 t39 29.5q-35 4 -64.5 6t-56.5 2q-74 0 -124 -10t-80.5 -24.5t-44 -29t-13.5 -22.5zM92 854q0 47 33 118.5t106.5 137.5t194.5 113t297 47q96 0 168 -12.5t140.5 -26.5t146 -26.5t182.5 -12.5q72 0 134 10t108 39q2 2 6 4t10 2t8 -2l4 -4q2 -2 2 -10q0 -25 -32.5 -50.5 t-84 -45t-114 -32.5t-121.5 -13q-100 0 -177 16t-145.5 36.5t-136 37t-147.5 16.5q-113 0 -203 -30.5t-154.5 -77t-99.5 -97.5t-35 -92q0 -70 94 -70q29 0 69 10.5t84 30t86 48t75 63.5l8 8q6 6 14 6q4 0 6 -2l5 -4q2 -2 2 -12q0 -16 -25 -55t-73 -80t-116.5 -73t-154.5 -32 q-96 0 -130 36t-34 81zM881 1581q2 20 20 21q8 0 12 -3l5 -2q66 -41 116.5 -78.5t85.5 -66.5q41 -35 72 -63q8 -9 8 -17q0 -10 -12 -10q-35 6 -76 18q-35 10 -80 28.5t-96 49.5q-39 35 -47 71t-8 52z" />
<glyph unicode="&#xc9;" horiz-adv-x="1060" d="M-332 -70q0 31 22.5 62t67.5 55.5t115 39.5t166 15q41 0 88 -3t100 -13q68 66 124.5 143.5t97.5 145.5q49 80 88 157q12 31 26 52q-45 -2 -75.5 -8.5t-49.5 -12.5q-23 -8 -32 -16q-2 -2 -7 -2q-8 0 -8 10q0 6 8.5 21.5t31 31t63.5 28.5t106 19q86 154 155.5 237 t118.5 124q57 47 105 57q2 2 6 2h10q12 0 15 -6v-2q0 -4 -4.5 -11t-24.5 -24q-29 -20 -66 -69q-33 -41 -80 -115t-110 -197q16 -2 39.5 -5t83.5 -3q59 0 126.5 10.5t106.5 40.5q2 0 4 2t11 2q10 0 10 -10q0 -8 -9.5 -29.5t-33 -45t-64.5 -41t-102 -17.5q-72 0 -126 12.5 t-83 12.5q-23 -39 -60.5 -104.5t-74.5 -123.5q-27 -43 -64 -90q-31 -41 -74.5 -91t-101.5 -101q213 -43 392.5 -108.5t348.5 -126t335.5 -103.5t353.5 -43q141 0 284.5 34.5t268.5 131.5h6q4 0 5 1t5 1q6 0 10 -4q2 -3 2 -5q0 -16 -14 -34q-8 -8 -16 -19 q-70 -72 -156 -112.5t-166 -60t-143.5 -25t-91.5 -5.5q-127 0 -248 26t-240 66t-237.5 89t-240.5 96t-251 88t-266 63q-51 -37 -96 -66.5t-93.5 -50t-103.5 -31.5t-127 -11q-82 0 -124 22.5t-42 46.5zM-215 -43q0 -20 27.5 -28.5t48.5 -8.5q55 0 106 14.5t92 33t70 38 t39 29.5q-35 4 -64.5 6t-56.5 2q-74 0 -124 -10t-80.5 -24.5t-44 -29t-13.5 -22.5zM92 854q0 47 33 118.5t106.5 137.5t194.5 113t297 47q96 0 168 -12.5t140.5 -26.5t146 -26.5t182.5 -12.5q72 0 134 10t108 39q2 2 6 4t10 2t8 -2l4 -4q2 -2 2 -10q0 -25 -32.5 -50.5 t-84 -45t-114 -32.5t-121.5 -13q-100 0 -177 16t-145.5 36.5t-136 37t-147.5 16.5q-113 0 -203 -30.5t-154.5 -77t-99.5 -97.5t-35 -92q0 -70 94 -70q29 0 69 10.5t84 30t86 48t75 63.5l8 8q6 6 14 6q4 0 6 -2l5 -4q2 -2 2 -12q0 -16 -25 -55t-73 -80t-116.5 -73t-154.5 -32 q-96 0 -130 36t-34 81zM1122 1354q0 4 1 5t1 3v4q33 31 76 66q37 29 87 67.5t116 79.5q2 0 6 2t10 2q19 0 21 -20q0 -16 -8.5 -52t-47.5 -71q-6 -6 -36.5 -21.5t-69.5 -32t-79 -30t-66 -13.5q-10 0 -11 11z" />
<glyph unicode="&#xca;" horiz-adv-x="1060" d="M-332 -70q0 31 22.5 62t67.5 55.5t115 39.5t166 15q41 0 88 -3t100 -13q68 66 124.5 143.5t97.5 145.5q49 80 88 157q12 31 26 52q-45 -2 -75.5 -8.5t-49.5 -12.5q-23 -8 -32 -16q-2 -2 -7 -2q-8 0 -8 10q0 6 8.5 21.5t31 31t63.5 28.5t106 19q86 154 155.5 237 t118.5 124q57 47 105 57q2 2 6 2h10q12 0 15 -6v-2q0 -4 -4.5 -11t-24.5 -24q-29 -20 -66 -69q-33 -41 -80 -115t-110 -197q16 -2 39.5 -5t83.5 -3q59 0 126.5 10.5t106.5 40.5q2 0 4 2t11 2q10 0 10 -10q0 -8 -9.5 -29.5t-33 -45t-64.5 -41t-102 -17.5q-72 0 -126 12.5 t-83 12.5q-23 -39 -60.5 -104.5t-74.5 -123.5q-27 -43 -64 -90q-31 -41 -74.5 -91t-101.5 -101q213 -43 392.5 -108.5t348.5 -126t335.5 -103.5t353.5 -43q141 0 284.5 34.5t268.5 131.5h6q4 0 5 1t5 1q6 0 10 -4q2 -3 2 -5q0 -16 -14 -34q-8 -8 -16 -19 q-70 -72 -156 -112.5t-166 -60t-143.5 -25t-91.5 -5.5q-127 0 -248 26t-240 66t-237.5 89t-240.5 96t-251 88t-266 63q-51 -37 -96 -66.5t-93.5 -50t-103.5 -31.5t-127 -11q-82 0 -124 22.5t-42 46.5zM-215 -43q0 -20 27.5 -28.5t48.5 -8.5q55 0 106 14.5t92 33t70 38 t39 29.5q-35 4 -64.5 6t-56.5 2q-74 0 -124 -10t-80.5 -24.5t-44 -29t-13.5 -22.5zM92 854q0 47 33 118.5t106.5 137.5t194.5 113t297 47q96 0 168 -12.5t140.5 -26.5t146 -26.5t182.5 -12.5q72 0 134 10t108 39q2 2 6 4t10 2t8 -2l4 -4q2 -2 2 -10q0 -25 -32.5 -50.5 t-84 -45t-114 -32.5t-121.5 -13q-100 0 -177 16t-145.5 36.5t-136 37t-147.5 16.5q-113 0 -203 -30.5t-154.5 -77t-99.5 -97.5t-35 -92q0 -70 94 -70q29 0 69 10.5t84 30t86 48t75 63.5l8 8q6 6 14 6q4 0 6 -2l5 -4q2 -2 2 -12q0 -16 -25 -55t-73 -80t-116.5 -73t-154.5 -32 q-96 0 -130 36t-34 81zM883 1364q0 4 2 6q33 31 76 68q37 31 90 70.5t118 80.5q4 2 11 4q12 4 22 4t20.5 -4t18.5 -16q41 -59 61.5 -105.5t30.5 -78.5q11 -37 13 -66q-2 -2 -5 -6q-4 -8 -12 -8q-14 0 -37.5 20.5t-47 47t-43 55t-27.5 43.5q-35 -29 -78 -52.5t-83 -41 t-70 -26.5t-38 -9q-23 0 -22 14z" />
<glyph unicode="&#xcb;" horiz-adv-x="1060" d="M-332 -70q0 31 22.5 62t67.5 55.5t115 39.5t166 15q41 0 88 -3t100 -13q68 66 124.5 143.5t97.5 145.5q49 80 88 157q12 31 26 52q-45 -2 -75.5 -8.5t-49.5 -12.5q-23 -8 -32 -16q-2 -2 -7 -2q-8 0 -8 10q0 6 8.5 21.5t31 31t63.5 28.5t106 19q86 154 155.5 237 t118.5 124q57 47 105 57q2 2 6 2h10q12 0 15 -6v-2q0 -4 -4.5 -11t-24.5 -24q-29 -20 -66 -69q-33 -41 -80 -115t-110 -197q16 -2 39.5 -5t83.5 -3q59 0 126.5 10.5t106.5 40.5q2 0 4 2t11 2q10 0 10 -10q0 -8 -9.5 -29.5t-33 -45t-64.5 -41t-102 -17.5q-72 0 -126 12.5 t-83 12.5q-23 -39 -60.5 -104.5t-74.5 -123.5q-27 -43 -64 -90q-31 -41 -74.5 -91t-101.5 -101q213 -43 392.5 -108.5t348.5 -126t335.5 -103.5t353.5 -43q141 0 284.5 34.5t268.5 131.5h6q4 0 5 1t5 1q6 0 10 -4q2 -3 2 -5q0 -16 -14 -34q-8 -8 -16 -19 q-70 -72 -156 -112.5t-166 -60t-143.5 -25t-91.5 -5.5q-127 0 -248 26t-240 66t-237.5 89t-240.5 96t-251 88t-266 63q-51 -37 -96 -66.5t-93.5 -50t-103.5 -31.5t-127 -11q-82 0 -124 22.5t-42 46.5zM-215 -43q0 -20 27.5 -28.5t48.5 -8.5q55 0 106 14.5t92 33t70 38 t39 29.5q-35 4 -64.5 6t-56.5 2q-74 0 -124 -10t-80.5 -24.5t-44 -29t-13.5 -22.5zM92 854q0 47 33 118.5t106.5 137.5t194.5 113t297 47q96 0 168 -12.5t140.5 -26.5t146 -26.5t182.5 -12.5q72 0 134 10t108 39q2 2 6 4t10 2t8 -2l4 -4q2 -2 2 -10q0 -25 -32.5 -50.5 t-84 -45t-114 -32.5t-121.5 -13q-100 0 -177 16t-145.5 36.5t-136 37t-147.5 16.5q-113 0 -203 -30.5t-154.5 -77t-99.5 -97.5t-35 -92q0 -70 94 -70q29 0 69 10.5t84 30t86 48t75 63.5l8 8q6 6 14 6q4 0 6 -2l5 -4q2 -2 2 -12q0 -16 -25 -55t-73 -80t-116.5 -73t-154.5 -32 q-96 0 -130 36t-34 81zM926 1389q0 25 11 48t29.5 41.5t40 30t40.5 11.5q43 0 43 -47q0 -27 -12.5 -51.5t-31 -43t-39 -29t-36.5 -10.5q-23 0 -34 14.5t-11 35.5zM1227 1389q0 25 11 48t29.5 41.5t40 30t40.5 11.5q43 0 43 -47q0 -27 -12.5 -51.5t-31 -43t-39 -29 t-36.5 -10.5q-23 0 -34 14.5t-11 35.5z" />
<glyph unicode="&#xcc;" horiz-adv-x="858" d="M-150 33q0 98 59.5 178t143.5 137.5t175 89t155 31.5q41 0 47 -9t6 -14q0 -8 -8 -12q-4 -2 -8 -2q-88 -12 -169 -53t-142.5 -97.5t-97.5 -120t-36 -116.5q0 -41 26 -56.5t60 -15.5q174 0 324 138.5t279 396.5q47 96 93 185t83 160t61.5 117t30.5 58q-141 -16 -229.5 -56 t-137.5 -85t-63.5 -87t-7.5 -65q0 -23 -19 -22q-4 0 -14 4t-21.5 15t-19.5 29.5t-8 47.5q0 78 55 128t138 82t182.5 49t187.5 30q57 94 125 168q29 31 61.5 61.5t68.5 54t74.5 38t77.5 14.5q23 0 45.5 -11.5t22.5 -52.5q0 -45 -16.5 -84t-43 -69.5t-60.5 -55t-70 -43.5 q-84 -43 -191 -69q-12 -20 -29.5 -49t-41 -72t-53.5 -104.5t-66 -147.5q-59 -141 -147.5 -279.5t-199 -249t-239.5 -178t-270 -67.5q-35 0 -67 6t-55.5 21.5t-37 40t-13.5 63.5zM1110 1126q72 20 125 52q47 27 85 63.5t38 89.5q0 10 -5 16.5t-24 6.5q-25 -2 -57 -27 q-29 -23 -69 -68t-93 -133zM1255 1716q2 20 21 21q8 0 12 -2l4 -2q66 -41 117 -79t86 -67q41 -35 72 -63q8 -9 8 -17q0 -10 -12 -10q-35 6 -76 19q-35 10 -80 28.5t-96 48.5q-39 35 -47.5 71t-8.5 52z" />
<glyph unicode="&#xcd;" horiz-adv-x="897" d="M-150 33q0 98 59.5 178t143.5 137.5t175 89t155 31.5q41 0 47 -9t6 -14q0 -8 -8 -12q-4 -2 -8 -2q-88 -12 -169 -53t-142.5 -97.5t-97.5 -120t-36 -116.5q0 -41 26 -56.5t60 -15.5q174 0 324 138.5t279 396.5q47 96 93 185t83 160t61.5 117t30.5 58q-141 -16 -229.5 -56 t-137.5 -85t-63.5 -87t-7.5 -65q0 -23 -19 -22q-4 0 -14 4t-21.5 15t-19.5 29.5t-8 47.5q0 78 55 128t138 82t182.5 49t187.5 30q57 94 125 168q29 31 61.5 61.5t68.5 54t74.5 38t77.5 14.5q23 0 45.5 -11.5t22.5 -52.5q0 -45 -16.5 -84t-43 -69.5t-60.5 -55t-70 -43.5 q-84 -43 -191 -69q-12 -20 -29.5 -49t-41 -72t-53.5 -104.5t-66 -147.5q-59 -141 -147.5 -279.5t-199 -249t-239.5 -178t-270 -67.5q-35 0 -67 6t-55.5 21.5t-37 40t-13.5 63.5zM1110 1126q72 20 125 52q47 27 85 63.5t38 89.5q0 10 -5 16.5t-24 6.5q-25 -2 -57 -27 q-29 -23 -69 -68t-93 -133zM1327 1536q0 4 1 5t1 3v4q33 31 76 66q37 29 87 67.5t116 79.5q2 0 6 2t10 2q19 0 21 -20q0 -16 -8.5 -52t-47.5 -71q-6 -6 -36.5 -21.5t-69.5 -32t-79 -29.5t-67 -13q-10 0 -10 10z" />
<glyph unicode="&#xce;" horiz-adv-x="858" d="M-150 33q0 98 59.5 178t143.5 137.5t175 89t155 31.5q41 0 47 -9t6 -14q0 -8 -8 -12q-4 -2 -8 -2q-88 -12 -169 -53t-142.5 -97.5t-97.5 -120t-36 -116.5q0 -41 26 -56.5t60 -15.5q174 0 324 138.5t279 396.5q47 96 93 185t83 160t61.5 117t30.5 58q-141 -16 -229.5 -56 t-137.5 -85t-63.5 -87t-7.5 -65q0 -23 -19 -22q-4 0 -14 4t-21.5 15t-19.5 29.5t-8 47.5q0 78 55 128t138 82t182.5 49t187.5 30q57 94 125 168q29 31 61.5 61.5t68.5 54t74.5 38t77.5 14.5q23 0 45.5 -11.5t22.5 -52.5q0 -45 -16.5 -84t-43 -69.5t-60.5 -55t-70 -43.5 q-84 -43 -191 -69q-12 -20 -29.5 -49t-41 -72t-53.5 -104.5t-66 -147.5q-59 -141 -147.5 -279.5t-199 -249t-239.5 -178t-270 -67.5q-35 0 -67 6t-55.5 21.5t-37 40t-13.5 63.5zM1110 1126q72 20 125 52q47 27 85 63.5t38 89.5q0 10 -5 16.5t-24 6.5q-25 -2 -57 -27 q-29 -23 -69 -68t-93 -133zM1128 1505q0 4 2 6q33 31 76 68q37 31 90.5 71t118.5 81q4 2 10 4q12 4 23 4q10 0 20.5 -4t18.5 -17q41 -59 61.5 -105t30.5 -79q10 -37 12 -66q-2 -2 -4 -6q-4 -8 -12 -8q-14 0 -38 20.5t-47.5 47t-43 55.5t-27.5 43q-35 -29 -78 -52.5 t-82.5 -41t-69.5 -26.5t-38 -9q-23 0 -23 14z" />
<glyph unicode="&#xcf;" horiz-adv-x="897" d="M-150 33q0 98 59.5 178t143.5 137.5t175 89t155 31.5q41 0 47 -9t6 -14q0 -8 -8 -12q-4 -2 -8 -2q-88 -12 -169 -53t-142.5 -97.5t-97.5 -120t-36 -116.5q0 -41 26 -56.5t60 -15.5q174 0 324 138.5t279 396.5q47 96 93 185t83 160t61.5 117t30.5 58q-141 -16 -229.5 -56 t-137.5 -85t-63.5 -87t-7.5 -65q0 -23 -19 -22q-4 0 -14 4t-21.5 15t-19.5 29.5t-8 47.5q0 78 55 128t138 82t182.5 49t187.5 30q57 94 125 168q29 31 61.5 61.5t68.5 54t74.5 38t77.5 14.5q23 0 45.5 -11.5t22.5 -52.5q0 -45 -16.5 -84t-43 -69.5t-60.5 -55t-70 -43.5 q-84 -43 -191 -69q-12 -20 -29.5 -49t-41 -72t-53.5 -104.5t-66 -147.5q-59 -141 -147.5 -279.5t-199 -249t-239.5 -178t-270 -67.5q-35 0 -67 6t-55.5 21.5t-37 40t-13.5 63.5zM1110 1126q72 20 125 52q47 27 85 63.5t38 89.5q0 10 -5 16.5t-24 6.5q-25 -2 -57 -27 q-29 -23 -69 -68t-93 -133zM1178 1559q0 25 11 48t29.5 41.5t40 30t39.5 11.5q43 -1 43 -48q0 -27 -12 -51t-30.5 -42.5t-39 -29t-36.5 -10.5q-23 0 -34 14.5t-11 35.5zM1479 1559q0 25 11 48t29.5 41.5t40 30t39.5 11.5q43 -1 43 -48q0 -27 -12 -51t-30.5 -42.5t-39 -29 t-36.5 -10.5q-23 0 -34 14.5t-11 35.5z" />
<glyph unicode="&#xd0;" horiz-adv-x="1296" d="M-311 -88q0 33 29.5 59.5t74.5 45t99.5 28.5t105.5 10q45 0 106.5 -5t139.5 -21q23 20 40 37.5t29 31.5q14 16 25 31q27 35 59.5 86t64.5 106.5t62.5 109.5t55.5 99q-45 0 -73 -1t-43 -2t-23.5 -2t-14.5 -1q-18 0 -18 15q0 2 1 3t1 3v2q0 2 6 11t18 20.5t31.5 20.5 t46.5 9h109l10 21q2 4 4 6q86 160 160.5 281.5t142.5 201.5q-41 35 -101.5 72t-135 65.5t-158.5 47t-174 18.5q-119 0 -198 -29.5t-126 -73.5t-66.5 -96.5t-19.5 -99.5q0 -39 12.5 -88t47 -104.5t96 -115t161.5 -116.5q4 -2 9 -6q6 -6 6 -12q0 -4 -3 -9.5t-22 -5.5 q-12 0 -48 10.5t-83 34t-97 60.5t-93 89t-71 120.5t-28 154.5q0 47 18.5 107.5t74 114t156 91t265.5 37.5q193 0 344.5 -55t286.5 -153q47 49 99 88q43 35 95 61.5t103 26.5q6 0 13.5 -3.5t7.5 -13.5q0 -4 -6 -10q-10 -10 -29 -18q-20 -6 -49 -26.5t-59.5 -47.5t-58.5 -56.5 t-46 -56.5q68 -57 110.5 -119.5t67.5 -124t34 -121t9 -110.5q0 -135 -54 -262t-152.5 -227.5t-238 -161t-309.5 -60.5q-88 0 -159.5 9.5t-100.5 15.5q-47 -39 -106 -70q-51 -27 -119 -48t-149 -21q-25 0 -61 3t-67.5 13t-54 28.5t-22.5 47.5zM-180 -74q2 -12 14 -20 q10 -8 33.5 -13.5t64.5 -5.5q72 0 133.5 26.5t112.5 61.5q-49 10 -89 13.5t-75 3.5q-109 0 -151.5 -21.5t-42.5 -44.5zM330 10q23 -4 63.5 -9t95.5 -5q160 0 286 57.5t214 151.5t134 211.5t46 240.5q0 96 -24.5 169t-52.5 124q-35 59 -80 105q-53 -74 -119 -183.5 t-143 -263.5h73q41 0 63.5 1t39.5 5q2 2 4 2h8q10 0 10 -8q0 -4 -6 -14q-27 -45 -77 -55.5t-122 -10.5h-34q-20 -39 -57.5 -101t-86.5 -134t-108.5 -146.5t-126.5 -136.5z" />
<glyph unicode="&#xd1;" horiz-adv-x="1398" d="M-244 125q0 141 56.5 249.5t138.5 183.5t175 114t167 39q41 0 83 -13.5t79 -48.5q4 -4 10 -12q10 -14 10 -29q0 -14 -14 -22q-4 2 -10 4t-27 10q-31 14 -59.5 19.5t-57.5 5.5q-82 0 -165 -45t-147.5 -117t-105.5 -159t-41 -173q0 -70 38 -121t134 -51q70 0 154 35 t181.5 118t209 220t234.5 342q0 78 4 138t8 103q6 51 10 86q27 129 63 203t69.5 111t61 45t38.5 8q25 0 38 -12.5t19 -30.5t7 -40.5t1 -45.5q0 -49 -18.5 -111.5t-48 -131t-67.5 -139.5t-77 -138q2 -10 2 -21.5v-21.5q6 -109 15 -213q8 -90 22.5 -187.5t38.5 -169.5 q2 -2 4 -6q4 -8 10 -8q8 0 17 17q12 33 33 79q16 41 43.5 99.5t68.5 136.5q25 51 56 111q27 51 62.5 118.5t76.5 139.5q-12 0 -34 10t-43.5 27.5t-37.5 41t-16 50.5q0 29 11 44t19 15q10 0 19 -8q4 -4 4 -10q23 -47 54.5 -68t66.5 -31q45 78 104.5 162t127 153.5t139 115.5 t139.5 46q33 0 49 -12t24 -29q9 -18 11 -43q0 -66 -45 -147.5t-122 -154t-179.5 -123t-214.5 -50.5q-74 -129 -146 -270t-129 -262q-68 -141 -125 -279q-10 -29 -18 -46t-15 -27q-8 -12 -14 -19q-4 -2 -12 -2q-20 0 -37.5 24.5t-30.5 55.5q-14 37 -26 82q-35 145 -52.5 273 t-23.5 239q-117 -188 -228.5 -315t-214 -203t-194.5 -107.5t-168 -31.5q-90 0 -139 36.5t-72 79.5q-27 51 -31 115zM907 854l19 35q37 61 63 121q23 51 42.5 108.5t19.5 102.5q0 14 -4.5 29.5t-16.5 15.5q-27 0 -50.5 -45t-38.5 -109.5t-24.5 -135.5t-9.5 -122zM1243 1307 q0 12 10.5 31.5t30 38t51 31.5t74.5 13q29 0 47.5 -6t36.5 -12t39.5 -12.5t54.5 -6.5q16 0 37 3.5t39 11.5q2 0 6 2t12 2q13 0 13 -10q0 -12 -11.5 -31t-30 -36t-44 -29.5t-54.5 -12.5q-33 0 -54 7t-39.5 15.5t-37 15.5t-49.5 7q-33 0 -50 -7t-27.5 -14.5t-18.5 -14.5 t-21 -7q-10 0 -11 6t-3 15zM1475 854q68 0 140.5 40t132.5 96.5t98 114.5t38 95q-4 25 -11 30t-26 5q-20 0 -44.5 -12.5t-51.5 -33t-52.5 -46t-49.5 -51.5q-55 -63 -115 -146q-16 -23 -29.5 -45t-29.5 -47z" />
<glyph unicode="&#xd2;" horiz-adv-x="1071" d="M-18 139q0 92 20.5 169t42.5 136q27 68 61 125l-2 33q-6 115 48.5 242t154 233.5t233.5 176t285 69.5q45 0 100.5 -11.5t103.5 -45t81 -98.5t33 -171q0 -133 -35 -270t-96.5 -266t-144.5 -243t-182 -197.5t-208.5 -133t-222.5 -49.5q-76 0 -128 24.5t-84 65.5t-46 95.5 t-14 115.5zM94 129q0 -45 10.5 -84t34 -68.5t61.5 -46t93 -16.5q92 0 184 53t174 142.5t152.5 202t122 232.5t80 236.5t28.5 210.5q0 119 -52 187.5t-194 68.5q-70 0 -140 -24.5t-134.5 -66.5t-120 -97t-97.5 -113.5t-65.5 -118t-23.5 -110.5q66 78 126 122t107 64.5 t78 24.5t35 4q8 0 15 -2t7 -10q0 -14 -16 -23.5t-39 -22.5q-49 -27 -102 -71q-45 -39 -98.5 -98.5t-102.5 -151.5q8 -20 28.5 -44t61.5 -24q16 0 25 2q2 2 6 2h10q14 0 14 -12q0 -14 -27.5 -41.5t-80.5 -27.5q-57 0 -88 34q-18 -45 -35 -98q-14 -45 -25.5 -100.5 t-11.5 -114.5zM745 1612q2 20 21 20q8 0 12 -2l4 -2q66 -41 117 -79t86 -66q41 -35 72 -64q8 -8 8 -16q0 -10 -12 -10q-35 6 -76 18q-35 10 -80 28.5t-96 49.5q-39 35 -47.5 70.5t-8.5 52.5z" />
<glyph unicode="&#xd3;" horiz-adv-x="1071" d="M-18 139q0 92 20.5 169t42.5 136q27 68 61 125l-2 33q-6 115 48.5 242t154 233.5t233.5 176t285 69.5q45 0 100.5 -11.5t103.5 -45t81 -98.5t33 -171q0 -133 -35 -270t-96.5 -266t-144.5 -243t-182 -197.5t-208.5 -133t-222.5 -49.5q-76 0 -128 24.5t-84 65.5t-46 95.5 t-14 115.5zM94 129q0 -45 10.5 -84t34 -68.5t61.5 -46t93 -16.5q92 0 184 53t174 142.5t152.5 202t122 232.5t80 236.5t28.5 210.5q0 119 -52 187.5t-194 68.5q-70 0 -140 -24.5t-134.5 -66.5t-120 -97t-97.5 -113.5t-65.5 -118t-23.5 -110.5q66 78 126 122t107 64.5 t78 24.5t35 4q8 0 15 -2t7 -10q0 -14 -16 -23.5t-39 -22.5q-49 -27 -102 -71q-45 -39 -98.5 -98.5t-102.5 -151.5q8 -20 28.5 -44t61.5 -24q16 0 25 2q2 2 6 2h10q14 0 14 -12q0 -14 -27.5 -41.5t-80.5 -27.5q-57 0 -88 34q-18 -45 -35 -98q-14 -45 -25.5 -100.5 t-11.5 -114.5zM883 1409q0 4 1 5t1 3v4q33 31 76 66q37 29 87 67.5t115 79.5q2 0 6 2t11 2q18 0 20 -20q0 -16 -8 -52t-47 -71q-6 -6 -37 -21.5t-70 -32t-78.5 -29.5t-66.5 -13q-10 0 -10 10z" />
<glyph unicode="&#xd4;" horiz-adv-x="1071" d="M-18 139q0 92 20.5 169t42.5 136q27 68 61 125l-2 33q-6 115 48.5 242t154 233.5t233.5 176t285 69.5q45 0 100.5 -11.5t103.5 -45t81 -98.5t33 -171q0 -133 -35 -270t-96.5 -266t-144.5 -243t-182 -197.5t-208.5 -133t-222.5 -49.5q-76 0 -128 24.5t-84 65.5t-46 95.5 t-14 115.5zM94 129q0 -45 10.5 -84t34 -68.5t61.5 -46t93 -16.5q92 0 184 53t174 142.5t152.5 202t122 232.5t80 236.5t28.5 210.5q0 119 -52 187.5t-194 68.5q-70 0 -140 -24.5t-134.5 -66.5t-120 -97t-97.5 -113.5t-65.5 -118t-23.5 -110.5q66 78 126 122t107 64.5 t78 24.5t35 4q8 0 15 -2t7 -10q0 -14 -16 -23.5t-39 -22.5q-49 -27 -102 -71q-45 -39 -98.5 -98.5t-102.5 -151.5q8 -20 28.5 -44t61.5 -24q16 0 25 2q2 2 6 2h10q14 0 14 -12q0 -14 -27.5 -41.5t-80.5 -27.5q-57 0 -88 34q-18 -45 -35 -98q-14 -45 -25.5 -100.5 t-11.5 -114.5zM682 1407q0 4 2 6q33 31 76 68q37 31 90 70.5t119 80.5q4 2 10 4q12 4 22 4t20.5 -4t18.5 -16q41 -59 61.5 -105.5t31.5 -78.5q10 -37 12 -66q-2 -2 -4 -6q-4 -8 -13 -8q-14 0 -37.5 20.5t-47 47t-43 55t-27.5 43.5q-35 -29 -78 -52.5t-83 -41t-69.5 -26.5 t-37.5 -9q-23 0 -23 14z" />
<glyph unicode="&#xd5;" horiz-adv-x="1071" d="M-18 139q0 92 20.5 169t42.5 136q27 68 61 125l-2 33q-6 115 48.5 242t154 233.5t233.5 176t285 69.5q45 0 100.5 -11.5t103.5 -45t81 -98.5t33 -171q0 -133 -35 -270t-96.5 -266t-144.5 -243t-182 -197.5t-208.5 -133t-222.5 -49.5q-76 0 -128 24.5t-84 65.5t-46 95.5 t-14 115.5zM94 129q0 -45 10.5 -84t34 -68.5t61.5 -46t93 -16.5q92 0 184 53t174 142.5t152.5 202t122 232.5t80 236.5t28.5 210.5q0 119 -52 187.5t-194 68.5q-70 0 -140 -24.5t-134.5 -66.5t-120 -97t-97.5 -113.5t-65.5 -118t-23.5 -110.5q66 78 126 122t107 64.5 t78 24.5t35 4q8 0 15 -2t7 -10q0 -14 -16 -23.5t-39 -22.5q-49 -27 -102 -71q-45 -39 -98.5 -98.5t-102.5 -151.5q8 -20 28.5 -44t61.5 -24q16 0 25 2q2 2 6 2h10q14 0 14 -12q0 -14 -27.5 -41.5t-80.5 -27.5q-57 0 -88 34q-18 -45 -35 -98q-14 -45 -25.5 -100.5 t-11.5 -114.5zM760 1462q0 29 35.5 50.5t83.5 21.5q29 0 48 -6t36.5 -13.5t36 -13.5t42.5 -6q23 0 37.5 6t23.5 14.5t16 14.5t16 6q14 0 14 -23q0 -31 -11.5 -51t-27.5 -31.5t-33.5 -16.5t-29.5 -5q-31 0 -53.5 9t-44 20.5t-44 20.5t-55.5 9q-39 0 -52.5 -10t-25.5 -10 t-12 14z" />
<glyph unicode="&#xd6;" horiz-adv-x="1071" d="M-18 139q0 92 20.5 169t42.5 136q27 68 61 125l-2 33q-6 115 48.5 242t154 233.5t233.5 176t285 69.5q45 0 100.5 -11.5t103.5 -45t81 -98.5t33 -171q0 -133 -35 -270t-96.5 -266t-144.5 -243t-182 -197.5t-208.5 -133t-222.5 -49.5q-76 0 -128 24.5t-84 65.5t-46 95.5 t-14 115.5zM94 129q0 -45 10.5 -84t34 -68.5t61.5 -46t93 -16.5q92 0 184 53t174 142.5t152.5 202t122 232.5t80 236.5t28.5 210.5q0 119 -52 187.5t-194 68.5q-70 0 -140 -24.5t-134.5 -66.5t-120 -97t-97.5 -113.5t-65.5 -118t-23.5 -110.5q66 78 126 122t107 64.5 t78 24.5t35 4q8 0 15 -2t7 -10q0 -14 -16 -23.5t-39 -22.5q-49 -27 -102 -71q-45 -39 -98.5 -98.5t-102.5 -151.5q8 -20 28.5 -44t61.5 -24q16 0 25 2q2 2 6 2h10q14 0 14 -12q0 -14 -27.5 -41.5t-80.5 -27.5q-57 0 -88 34q-18 -45 -35 -98q-14 -45 -25.5 -100.5 t-11.5 -114.5zM641 1450q0 25 11.5 48.5t29.5 42t39.5 29.5t40.5 11q43 0 43 -47q0 -27 -12.5 -51.5t-31 -43t-39 -28.5t-36.5 -10q-23 0 -34 14.5t-11 34.5zM942 1450q0 25 11.5 48.5t29.5 42t39.5 29.5t40.5 11q43 0 43 -47q0 -27 -12.5 -51.5t-31 -43t-38.5 -28.5 t-37 -10q-23 0 -34 14.5t-11 34.5z" />
<glyph unicode="&#xd7;" d="M16 311q0 4 13.5 15.5t29.5 23.5q20 14 43 31q39 27 84 59q39 29 87.5 64t101.5 74q-45 106 -80 176.5t-35 74.5t3 8.5t13 4.5q4 2 11 2h20q16 0 30.5 -4t20.5 -19q12 -29 27 -59q12 -27 26.5 -60.5t30.5 -70.5q49 35 96.5 67.5t87.5 58t68.5 45t40.5 25.5 q14 8 27.5 10.5t23.5 2.5q37 0 45 -6q7 -5 7 -9q0 -6 -2 -8l-2 -2q-14 -8 -53.5 -34.5t-89.5 -61.5t-109.5 -77t-114.5 -83q2 -6 14.5 -39t29.5 -73.5t36.5 -84t34.5 -69.5q4 -6 4 -14q0 -10 -27 -15q-12 -2 -29 -2q-14 0 -25 7t-18 18q-8 10 -12 22q-35 104 -76 197 q-35 -25 -65.5 -47.5t-52.5 -38.5q-27 -20 -50 -37q-23 -16 -40 -27.5t-31 -21.5q-16 -10 -29 -19q-16 -10 -33.5 -13t-34.5 -3q-20 0 -33.5 2t-13.5 10z" />
<glyph unicode="&#xd8;" horiz-adv-x="1124" d="M-139 -147q0 6 4 10q6 6 54 55t116 119q-6 41 -6 82q0 92 20.5 169t42.5 136q27 68 62 125l-2 33q-6 115 48 241.5t153.5 233t233.5 176.5t285 70q31 0 67 -5.5t73 -18.5t69.5 -37.5t57.5 -63.5l4 4q45 47 76.5 73.5t68.5 26.5q4 0 21.5 -3t17.5 -13q0 -6 -7 -15.5 t-18.5 -19.5t-21.5 -20.5t-16 -16.5q-4 -4 -28 -27.5t-62 -64.5q16 -55 16 -125q0 -133 -35 -270.5t-96.5 -266.5t-144.5 -242.5t-182 -197.5t-208.5 -133t-222.5 -49q-94 0 -152.5 36.5t-87.5 96.5q-29 -29 -49 -50.5t-37 -35.5q-14 -12 -32.5 -20.5t-40.5 -8.5 q-6 0 -23.5 3t-17.5 14zM141 147q74 76 158 163t171 176t173 178.5t164 169t144.5 148.5t111.5 116q-23 61 -76 95t-151 34q-70 0 -140.5 -24.5t-135 -66.5t-120 -97.5t-97.5 -114t-65.5 -117.5t-23.5 -111q66 78 126 122t107.5 64.5t78 24.5t34.5 4q8 0 15.5 -2t7.5 -10 q0 -14 -16.5 -23.5t-39.5 -21.5q-49 -27 -102 -72q-45 -39 -98.5 -98t-102.5 -152q8 -20 28.5 -43.5t61.5 -23.5q16 0 25 2q2 2 6 2h10q14 0 15 -12q0 -14 -28 -42t-81 -28q-57 0 -88 35q-18 -39 -33 -84q-12 -39 -23.5 -88t-15.5 -103zM147 37q14 -61 59.5 -102t133.5 -41 q92 0 184 53t174 142t153 201.5t122 232.5t79.5 237t28.5 211v17t-2 18q-66 -68 -146.5 -152t-167.5 -175t-176 -183.5t-171 -177.5t-151.5 -157.5t-119.5 -123.5z" />
<glyph unicode="&#xd9;" horiz-adv-x="1101" d="M-215 727q0 55 31.5 118.5t87 126t130.5 119t161 99.5t179 68.5t185 25.5q25 0 55.5 -4t57 -16.5t45 -35t18.5 -59.5q0 -51 -40 -129.5t-99 -172t-128 -196t-128 -199.5t-99 -184t-40 -153q0 -23 11 -41t48 -18t100.5 35.5t138 91t152.5 123t146 131.5q47 164 109.5 293 t119.5 221q68 106 135 188q51 66 95 103.5t79 59t61.5 28t43.5 6.5q35 0 52 -19.5t17 -52.5q0 -49 -30.5 -114.5t-80.5 -138.5t-114.5 -147.5t-129 -146t-126 -134t-106.5 -107.5q-18 -57 -33 -123q-12 -55 -23.5 -122t-11.5 -132q0 -37 5 -77t17.5 -78t36 -71.5t60.5 -54.5 q4 -2 8 -6q6 -6 6 -12q0 -4 -2 -6q-4 -2 -10 -7q-8 -6 -29 -6q-51 0 -89 32t-63.5 80t-38 107.5t-12.5 114.5q0 43 5.5 82t9.5 68q6 35 12 63q-106 -106 -213 -188q-45 -35 -95 -69t-101.5 -60.5t-101.5 -43t-95 -16.5q-27 0 -44.5 11.5t-27.5 30t-15 40t-5 41.5 q0 84 40 182.5t99 201t129 202.5t129 189t99 160t40 114q0 41 -32.5 54t-67.5 13q-66 0 -136.5 -20.5t-139 -54t-130 -77.5t-108.5 -91t-75 -95.5t-28 -89.5t29 -61.5t80 -20.5q47 0 127 28t174 122q2 4 6 6q8 4 12 4q10 0 11 -12q0 -39 -40 -84t-97.5 -84t-122 -63.5 t-113.5 -24.5q-90 0 -131 38t-41 97zM866 1593q2 20 21 21q8 0 12 -2l4 -2q66 -41 117 -79t86 -67q41 -35 72 -63q8 -9 8 -17q0 -10 -12 -10q-35 6 -76 19q-35 10 -80 28.5t-96 48.5q-39 35 -47.5 71t-8.5 52zM975 635q68 70 146.5 160t147 177t115 160.5t46.5 110.5 q0 20 -23 21q-4 0 -30.5 -14.5t-86.5 -86.5q-55 -70 -110 -151q-47 -72 -102.5 -167t-102.5 -210z" />
<glyph unicode="&#xda;" horiz-adv-x="1101" d="M-215 727q0 55 31.5 118.5t87 126t130.5 119t161 99.5t179 68.5t185 25.5q25 0 55.5 -4t57 -16.5t45 -35t18.5 -59.5q0 -51 -40 -129.5t-99 -172t-128 -196t-128 -199.5t-99 -184t-40 -153q0 -23 11 -41t48 -18t100.5 35.5t138 91t152.5 123t146 131.5q47 164 109.5 293 t119.5 221q68 106 135 188q51 66 95 103.5t79 59t61.5 28t43.5 6.5q35 0 52 -19.5t17 -52.5q0 -49 -30.5 -114.5t-80.5 -138.5t-114.5 -147.5t-129 -146t-126 -134t-106.5 -107.5q-18 -57 -33 -123q-12 -55 -23.5 -122t-11.5 -132q0 -37 5 -77t17.5 -78t36 -71.5t60.5 -54.5 q4 -2 8 -6q6 -6 6 -12q0 -4 -2 -6q-4 -2 -10 -7q-8 -6 -29 -6q-51 0 -89 32t-63.5 80t-38 107.5t-12.5 114.5q0 43 5.5 82t9.5 68q6 35 12 63q-106 -106 -213 -188q-45 -35 -95 -69t-101.5 -60.5t-101.5 -43t-95 -16.5q-27 0 -44.5 11.5t-27.5 30t-15 40t-5 41.5 q0 84 40 182.5t99 201t129 202.5t129 189t99 160t40 114q0 41 -32.5 54t-67.5 13q-66 0 -136.5 -20.5t-139 -54t-130 -77.5t-108.5 -91t-75 -95.5t-28 -89.5t29 -61.5t80 -20.5q47 0 127 28t174 122q2 4 6 6q8 4 12 4q10 0 11 -12q0 -39 -40 -84t-97.5 -84t-122 -63.5 t-113.5 -24.5q-90 0 -131 38t-41 97zM965 1378q0 4 1 5t1 3v5q33 31 75 65q37 29 87.5 68t115.5 80q2 0 6 2t11 2q18 -1 20 -21q0 -16 -8 -52t-47 -71q-6 -6 -37 -21.5t-70 -31.5t-79 -29.5t-66 -13.5q-10 0 -10 10zM975 635q68 70 146.5 160t147 177t115 160.5t46.5 110.5 q0 20 -23 21q-4 0 -30.5 -14.5t-86.5 -86.5q-55 -70 -110 -151q-47 -72 -102.5 -167t-102.5 -210z" />
<glyph unicode="&#xdb;" horiz-adv-x="1101" d="M-215 727q0 55 31.5 118.5t87 126t130.5 119t161 99.5t179 68.5t185 25.5q25 0 55.5 -4t57 -16.5t45 -35t18.5 -59.5q0 -51 -40 -129.5t-99 -172t-128 -196t-128 -199.5t-99 -184t-40 -153q0 -23 11 -41t48 -18t100.5 35.5t138 91t152.5 123t146 131.5q47 164 109.5 293 t119.5 221q68 106 135 188q51 66 95 103.5t79 59t61.5 28t43.5 6.5q35 0 52 -19.5t17 -52.5q0 -49 -30.5 -114.5t-80.5 -138.5t-114.5 -147.5t-129 -146t-126 -134t-106.5 -107.5q-18 -57 -33 -123q-12 -55 -23.5 -122t-11.5 -132q0 -37 5 -77t17.5 -78t36 -71.5t60.5 -54.5 q4 -2 8 -6q6 -6 6 -12q0 -4 -2 -6q-4 -2 -10 -7q-8 -6 -29 -6q-51 0 -89 32t-63.5 80t-38 107.5t-12.5 114.5q0 43 5.5 82t9.5 68q6 35 12 63q-106 -106 -213 -188q-45 -35 -95 -69t-101.5 -60.5t-101.5 -43t-95 -16.5q-27 0 -44.5 11.5t-27.5 30t-15 40t-5 41.5 q0 84 40 182.5t99 201t129 202.5t129 189t99 160t40 114q0 41 -32.5 54t-67.5 13q-66 0 -136.5 -20.5t-139 -54t-130 -77.5t-108.5 -91t-75 -95.5t-28 -89.5t29 -61.5t80 -20.5q47 0 127 28t174 122q2 4 6 6q8 4 12 4q10 0 11 -12q0 -39 -40 -84t-97.5 -84t-122 -63.5 t-113.5 -24.5q-90 0 -131 38t-41 97zM770 1389q0 4 2 6q33 31 76 67q37 31 90 71t119 81q4 2 10 4q12 4 23 4q10 0 20 -4t18 -16q41 -59 61.5 -105.5t31.5 -79.5q10 -36 12 -65q-2 -2 -4 -6q-4 -8 -12 -9q-14 0 -38 20.5t-47.5 47.5t-43 55.5t-27.5 42.5q-35 -29 -78 -52.5 t-83 -40.5t-69.5 -26.5t-37.5 -9.5q-23 0 -23 15zM975 635q68 70 146.5 160t147 177t115 160.5t46.5 110.5q0 20 -23 21q-4 0 -30.5 -14.5t-86.5 -86.5q-55 -70 -110 -151q-47 -72 -102.5 -167t-102.5 -210z" />
<glyph unicode="&#xdc;" horiz-adv-x="1101" d="M-215 727q0 55 31.5 118.5t87 126t130.5 119t161 99.5t179 68.5t185 25.5q25 0 55.5 -4t57 -16.5t45 -35t18.5 -59.5q0 -51 -40 -129.5t-99 -172t-128 -196t-128 -199.5t-99 -184t-40 -153q0 -23 11 -41t48 -18t100.5 35.5t138 91t152.5 123t146 131.5q47 164 109.5 293 t119.5 221q68 106 135 188q51 66 95 103.5t79 59t61.5 28t43.5 6.5q35 0 52 -19.5t17 -52.5q0 -49 -30.5 -114.5t-80.5 -138.5t-114.5 -147.5t-129 -146t-126 -134t-106.5 -107.5q-18 -57 -33 -123q-12 -55 -23.5 -122t-11.5 -132q0 -37 5 -77t17.5 -78t36 -71.5t60.5 -54.5 q4 -2 8 -6q6 -6 6 -12q0 -4 -2 -6q-4 -2 -10 -7q-8 -6 -29 -6q-51 0 -89 32t-63.5 80t-38 107.5t-12.5 114.5q0 43 5.5 82t9.5 68q6 35 12 63q-106 -106 -213 -188q-45 -35 -95 -69t-101.5 -60.5t-101.5 -43t-95 -16.5q-27 0 -44.5 11.5t-27.5 30t-15 40t-5 41.5 q0 84 40 182.5t99 201t129 202.5t129 189t99 160t40 114q0 41 -32.5 54t-67.5 13q-66 0 -136.5 -20.5t-139 -54t-130 -77.5t-108.5 -91t-75 -95.5t-28 -89.5t29 -61.5t80 -20.5q47 0 127 28t174 122q2 4 6 6q8 4 12 4q10 0 11 -12q0 -39 -40 -84t-97.5 -84t-122 -63.5 t-113.5 -24.5q-90 0 -131 38t-41 97zM813 1413q0 25 11.5 48.5t29.5 42t39.5 29.5t40.5 11q43 0 43 -47q0 -27 -12.5 -51.5t-31 -43t-39 -28.5t-36.5 -10q-23 0 -34 14.5t-11 34.5zM975 635q68 70 146.5 160t147 177t115 160.5t46.5 110.5q0 20 -23 21q-4 0 -30.5 -14.5 t-86.5 -86.5q-55 -70 -110 -151q-47 -72 -102.5 -167t-102.5 -210zM1114 1413q0 25 11.5 48.5t30 42t40 29.5t39.5 11q43 0 43 -47q0 -27 -12.5 -51.5t-30.5 -43t-38.5 -28.5t-37.5 -10q-23 0 -34 14.5t-11 34.5z" />
<glyph unicode="&#xdd;" horiz-adv-x="1263" d="M-139 653q0 45 27.5 101.5t76.5 114t117 111.5t148.5 96t171 67.5t184.5 25.5q100 0 146 -46t46 -119q0 -80 -45 -164t-100 -165t-100.5 -157t-45.5 -141q0 -18 11.5 -38t52.5 -20q66 0 125 18.5t106 41.5q53 27 103 59q12 29 37.5 90.5t60.5 136t79 153.5t96 143.5 t112.5 105.5t126.5 41q35 0 51 -19.5t16 -48.5q0 -59 -49 -143t-120.5 -169t-150.5 -160.5t-138 -118.5q-12 -25 -21.5 -47.5t-22 -53.5t-32 -73t-49.5 -107q66 -6 122 -38t99 -79t67.5 -105.5t24.5 -115.5q0 -10 -6 -14t-12 -4q-10 0 -11 8q-14 37 -38.5 83t-62.5 87 t-92 70.5t-130 31.5q-92 -178 -205 -319q-49 -59 -106.5 -116.5t-124 -103t-139 -73t-150.5 -27.5q-70 0 -124 32t-54 112q0 61 35.5 127.5t96 130t142.5 122t173 101.5t188.5 68.5t189.5 25.5q29 53 43 88t35 84q-51 -29 -109 -51q-49 -20 -110.5 -35.5t-122.5 -15.5 q-78 0 -113 32.5t-35 83.5q0 43 23.5 96.5t58.5 112t76 120t76 119.5t58.5 110.5t23.5 93.5q0 33 -19.5 63.5t-73.5 30.5q-129 0 -240.5 -48t-193.5 -113.5t-129 -133.5t-47 -107q0 -31 25.5 -43t60.5 -12q23 0 53.5 5t69.5 19.5t84 42t94 72.5l4 5q4 4 11 4q16 0 16 -19 q0 -27 -33 -66.5t-86 -76.5t-119.5 -63.5t-132.5 -26.5q-74 0 -112.5 25.5t-38.5 84.5zM53 -387q0 -33 7.5 -51.5t18.5 -27.5t27.5 -11t34.5 -2q55 0 108.5 24.5t105 65.5t99.5 92t89 107q98 126 182 288q-106 0 -225 -42t-218.5 -109.5t-164 -154.5t-64.5 -179zM1022 1214 q0 4 1 5.5t1 3.5v4q33 31 76 65q37 29 87 68t116 80q2 0 6 2t10 2q18 -1 20 -21q0 -16 -8 -52t-47 -71q-6 -6 -36.5 -21t-69.5 -31.5t-79 -30t-67 -13.5q-10 0 -10 10zM1059 584q0 -4 4 -4q6 0 32.5 24.5t61.5 62.5t74 86t71.5 94t54 85.5t21.5 62.5q0 8 -4 15.5t-16 7.5 q-27 0 -59.5 -27.5t-64.5 -70.5t-61.5 -94.5t-53 -99.5t-40 -86t-20.5 -54v-2z" />
<glyph unicode="&#xde;" horiz-adv-x="1357" d="M-96 -111q0 70 59.5 128.5t146.5 100.5t186 64.5t181 22.5h33.5t30.5 -2q16 29 36.5 66.5t43.5 78.5q-33 29 -39 72q0 8 4 16q8 14 18 15q12 0 25 -13q6 -6 10 -14l4 -4l10 -10q10 16 19.5 32.5t15.5 30.5q33 66 74 137.5t87 143t96 139.5t102 125q-25 2 -45.5 3t-36.5 1 q-158 0 -295.5 -34t-237.5 -88t-157.5 -119.5t-57.5 -129.5q0 -41 27.5 -57t97.5 -16q37 0 87 11t103.5 35.5t108.5 61.5t100 86q4 2 9 6q6 6 14 6q4 0 6 -3t2 -17q-8 -49 -56 -98.5t-117 -90t-148.5 -66.5t-149.5 -26q-100 0 -144 36t-44 95q0 88 66.5 171t184 147.5 t281.5 104.5t356 40q25 0 48.5 -1t46.5 -3q59 61 114.5 100t102.5 46q4 0 11 -1t7 -10q0 -6 -12 -18q-6 -6 -14 -10q-68 -57 -125 -119q78 -14 142 -43t111.5 -68t74 -88t26.5 -108q0 -106 -56.5 -194.5t-148.5 -150t-207.5 -95t-234.5 -33.5q-41 0 -82 3t-78 13 q-37 -61 -74 -117q43 -16 69 -41.5t26 -54.5q0 -14 -11 -14q-4 0 -12 4q-4 2 -8 2q-49 35 -105 47q-68 -92 -140.5 -156.5t-143 -104.5t-136 -57.5t-120.5 -17.5q-168 0 -168 102zM33 -90q0 -31 24.5 -41t53.5 -10q86 0 156.5 44t123.5 97q62 63 113 141 q-141 0 -232.5 -29.5t-144.5 -68.5t-73.5 -78t-20.5 -55zM760 358q29 -8 61.5 -12t75.5 -4q98 0 190.5 28.5t165 83t116.5 133.5t44 177q0 59 -24.5 101t-64.5 71t-90 46t-99 26q-66 -80 -118 -163t-96 -166t-83 -165t-78 -156z" />
<glyph unicode="&#xdf;" horiz-adv-x="991" d="M-160 -66.5q0 7.5 2 15.5q16 76 66.5 197.5t126.5 259t173 275.5t207.5 249.5t230.5 182.5t241 71q20 0 45.5 -3t48.5 -13.5t38 -33t15 -63.5q0 -29 -18.5 -76t-58 -97t-101 -98t-147.5 -79q-2 -2 -7 -4q-6 -2 -6 -8q0 -4 13 -9q49 -12 86 -41q33 -25 58.5 -65.5 t25.5 -106.5q0 -29 -7.5 -65.5t-23.5 -73.5q27 -8 49 -24q18 -14 32.5 -34t14.5 -48q0 -29 -11 -41.5t-18 -12.5q-8 0 -16 13q-4 6 -4 12q-12 25 -32.5 41t-45.5 29q-51 -88 -123 -156q-61 -59 -150 -108.5t-208 -49.5q-84 0 -121 28t-37 71q0 45 39 99t106.5 101t161 79 t201.5 32q18 0 34.5 -1t33.5 -3q10 41 13 73.5t3 53.5q0 53 -22.5 84.5t-55.5 48t-69.5 22t-65.5 5.5t-39 -3q-8 -2 -16 -2q-4 0 -7 -1t-8 -1q-29 0 -28 19q0 14 6 22q4 6 6 11q10 10 28.5 14t39.5 6q23 2 49 2q55 10 112.5 44t105.5 78t78.5 94t30.5 93q0 49 -23.5 60.5 t-57.5 11.5q-76 0 -154 -48t-154.5 -129t-149.5 -185.5t-138.5 -215t-121 -221t-98.5 -203t-69.5 -159t-34.5 -88.5q-6 -18 -13 -23.5t-14 -5.5q-10 0 -28.5 18.5t-18.5 69.5v13.5zM309 86q0 -51 62 -51q88 0 153.5 42t112.5 93q53 59 92 135q-23 4 -41 4h-31 q-80 0 -144 -23.5t-109.5 -58t-70 -72.5t-24.5 -69z" />
<glyph unicode="&#xe0;" d="M-53 100q0 80 48 174.5t123 175t167 134t178 53.5q35 0 63.5 -14.5t44.5 -51.5q0 -2 2 -4q4 -4 7 -4q2 0 8 8q16 33 40.5 54.5t53.5 21.5q12 0 32.5 -4t20.5 -18v-7q0 -2 -2 -2q-35 -43 -71.5 -100t-65.5 -110q-35 -61 -68 -123q-23 -41 -41 -78q-16 -33 -28.5 -70 t-12.5 -65q0 -20 9.5 -37t40.5 -17q20 0 49.5 14.5t76 54.5t113 111.5t158.5 184.5q0 2 2 4t6 2q2 0 9.5 -8.5t7.5 -24.5q0 -10 -4.5 -24.5t-20.5 -34.5q-98 -129 -178 -203t-138.5 -109.5t-94.5 -45t-44 -9.5q-61 0 -81.5 32t-20.5 71q0 47 12 78.5t12 37.5q0 4 -4 5l-4 -2 q-2 -2 -4 -3q-51 -57 -99 -89.5t-88 -50t-69 -21.5t-45 -4q-31 0 -51.5 11t-30.5 28.5t-14 38t-4 40.5zM66 119q0 -20 9 -39t40 -19q37 0 86 31t101 84t104.5 124t93.5 151q10 23 14 39t4 28q0 35 -16.5 45t-38.5 10q-49 0 -118 -48t-131 -118.5t-105 -149.5t-43 -138z M399 948q2 20 21 21q8 0 12 -2l4 -2q66 -41 117 -79t86 -67q41 -35 72 -63q8 -9 8 -17q0 -10 -12 -10q-35 6 -76 19q-35 10 -80 28.5t-96 48.5q-39 35 -47.5 71t-8.5 52z" />
<glyph unicode="&#xe1;" d="M-53 100q0 80 48 174.5t123 175t167 134t178 53.5q35 0 63.5 -14.5t44.5 -51.5q0 -2 2 -4q4 -4 7 -4q2 0 8 8q16 33 40.5 54.5t53.5 21.5q12 0 32.5 -4t20.5 -18v-7q0 -2 -2 -2q-35 -43 -71.5 -100t-65.5 -110q-35 -61 -68 -123q-23 -41 -41 -78q-16 -33 -28.5 -70 t-12.5 -65q0 -20 9.5 -37t40.5 -17q20 0 49.5 14.5t76 54.5t113 111.5t158.5 184.5q0 2 2 4t6 2q2 0 9.5 -8.5t7.5 -24.5q0 -10 -4.5 -24.5t-20.5 -34.5q-98 -129 -178 -203t-138.5 -109.5t-94.5 -45t-44 -9.5q-61 0 -81.5 32t-20.5 71q0 47 12 78.5t12 37.5q0 4 -4 5l-4 -2 q-2 -2 -4 -3q-51 -57 -99 -89.5t-88 -50t-69 -21.5t-45 -4q-31 0 -51.5 11t-30.5 28.5t-14 38t-4 40.5zM66 119q0 -20 9 -39t40 -19q37 0 86 31t101 84t104.5 124t93.5 151q10 23 14 39t4 28q0 35 -16.5 45t-38.5 10q-49 0 -118 -48t-131 -118.5t-105 -149.5t-43 -138z M508 731q0 4 1 5t1 3v4q33 31 76 66q37 29 87 67.5t115 79.5q2 0 7 2q4 2 10 3q18 -1 20 -21q0 -16 -8 -52t-47 -71q-6 -6 -37 -21.5t-69.5 -31.5t-78.5 -29.5t-67 -13.5q-10 0 -10 10z" />
<glyph unicode="&#xe2;" d="M-53 100q0 80 48 174.5t123 175t167 134t178 53.5q35 0 63.5 -14.5t44.5 -51.5q0 -2 2 -4q4 -4 7 -4q2 0 8 8q16 33 40.5 54.5t53.5 21.5q12 0 32.5 -4t20.5 -18v-7q0 -2 -2 -2q-35 -43 -71.5 -100t-65.5 -110q-35 -61 -68 -123q-23 -41 -41 -78q-16 -33 -28.5 -70 t-12.5 -65q0 -20 9.5 -37t40.5 -17q20 0 49.5 14.5t76 54.5t113 111.5t158.5 184.5q0 2 2 4t6 2q2 0 9.5 -8.5t7.5 -24.5q0 -10 -4.5 -24.5t-20.5 -34.5q-98 -129 -178 -203t-138.5 -109.5t-94.5 -45t-44 -9.5q-61 0 -81.5 32t-20.5 71q0 47 12 78.5t12 37.5q0 4 -4 5l-4 -2 q-2 -2 -4 -3q-51 -57 -99 -89.5t-88 -50t-69 -21.5t-45 -4q-31 0 -51.5 11t-30.5 28.5t-14 38t-4 40.5zM66 119q0 -20 9 -39t40 -19q37 0 86 31t101 84t104.5 124t93.5 151q10 23 14 39t4 28q0 35 -16.5 45t-38.5 10q-49 0 -118 -48t-131 -118.5t-105 -149.5t-43 -138z M287 748q0 4 2 6q33 31 76 67q37 31 90 71t118 81q4 2 11 4q12 4 22 4t20.5 -4t18.5 -16q41 -59 61.5 -105.5t30.5 -79.5q11 -36 13 -65q-2 -2 -5 -6q-4 -8 -12 -9q-14 0 -37.5 20.5t-47 47.5t-43 55.5t-27.5 42.5q-35 -29 -78 -52.5t-83 -40.5t-70 -26.5t-38 -9.5 q-23 0 -22 15z" />
<glyph unicode="&#xe3;" d="M-53 100q0 80 48 174.5t123 175t167 134t178 53.5q35 0 63.5 -14.5t44.5 -51.5q0 -2 2 -4q4 -4 7 -4q2 0 8 8q16 33 40.5 54.5t53.5 21.5q12 0 32.5 -4t20.5 -18v-7q0 -2 -2 -2q-35 -43 -71.5 -100t-65.5 -110q-35 -61 -68 -123q-23 -41 -41 -78q-16 -33 -28.5 -70 t-12.5 -65q0 -20 9.5 -37t40.5 -17q20 0 49.5 14.5t76 54.5t113 111.5t158.5 184.5q0 2 2 4t6 2q2 0 9.5 -8.5t7.5 -24.5q0 -10 -4.5 -24.5t-20.5 -34.5q-98 -129 -178 -203t-138.5 -109.5t-94.5 -45t-44 -9.5q-61 0 -81.5 32t-20.5 71q0 47 12 78.5t12 37.5q0 4 -4 5l-4 -2 q-2 -2 -4 -3q-51 -57 -99 -89.5t-88 -50t-69 -21.5t-45 -4q-31 0 -51.5 11t-30.5 28.5t-14 38t-4 40.5zM66 119q0 -20 9 -39t40 -19q37 0 86 31t101 84t104.5 124t93.5 151q10 23 14 39t4 28q0 35 -16.5 45t-38.5 10q-49 0 -118 -48t-131 -118.5t-105 -149.5t-43 -138z M371 809q0 29 35.5 50.5t82.5 21.5q29 0 48.5 -6.5t37 -13.5t36 -13t42.5 -6q23 0 37.5 6t23.5 14t16 14.5t15 6.5q15 0 15 -23q0 -31 -11.5 -51.5t-27.5 -31.5t-33.5 -16t-30.5 -5q-31 0 -53 9t-43.5 20.5t-44 20.5t-55.5 9q-39 0 -52.5 -10t-25.5 -10t-12 14z" />
<glyph unicode="&#xe4;" d="M-53 100q0 80 48 174.5t123 175t167 134t178 53.5q35 0 63.5 -14.5t44.5 -51.5q0 -2 2 -4q4 -4 7 -4q2 0 8 8q16 33 40.5 54.5t53.5 21.5q12 0 32.5 -4t20.5 -18v-7q0 -2 -2 -2q-35 -43 -71.5 -100t-65.5 -110q-35 -61 -68 -123q-23 -41 -41 -78q-16 -33 -28.5 -70 t-12.5 -65q0 -20 9.5 -37t40.5 -17q20 0 49.5 14.5t76 54.5t113 111.5t158.5 184.5q0 2 2 4t6 2q2 0 9.5 -8.5t7.5 -24.5q0 -10 -4.5 -24.5t-20.5 -34.5q-98 -129 -178 -203t-138.5 -109.5t-94.5 -45t-44 -9.5q-61 0 -81.5 32t-20.5 71q0 47 12 78.5t12 37.5q0 4 -4 5l-4 -2 q-2 -2 -4 -3q-51 -57 -99 -89.5t-88 -50t-69 -21.5t-45 -4q-31 0 -51.5 11t-30.5 28.5t-14 38t-4 40.5zM66 119q0 -20 9 -39t40 -19q37 0 86 31t101 84t104.5 124t93.5 151q10 23 14 39t4 28q0 35 -16.5 45t-38.5 10q-49 0 -118 -48t-131 -118.5t-105 -149.5t-43 -138z M352 821q0 25 11.5 48.5t30 42t40 29.5t39.5 11q43 0 43 -47q0 -27 -12 -51.5t-30.5 -42.5t-39 -28.5t-37.5 -10.5q-23 0 -34 14.5t-11 34.5zM653 821q0 25 11.5 48.5t30 42t40 29.5t39.5 11q43 0 43 -47q0 -27 -12 -51.5t-30.5 -42.5t-39 -28.5t-37.5 -10.5q-23 0 -34 14.5 t-11 34.5z" />
<glyph unicode="&#xe5;" d="M-53 100q0 80 48 174.5t123 175t167 134t178 53.5q35 0 63.5 -14.5t44.5 -51.5q0 -2 2 -4q4 -4 7 -4q2 0 8 8q16 33 40.5 54.5t53.5 21.5q12 0 32.5 -4t20.5 -18v-7q0 -2 -2 -2q-35 -43 -71.5 -100t-65.5 -110q-35 -61 -68 -123q-23 -41 -41 -78q-16 -33 -28.5 -70 t-12.5 -65q0 -20 9.5 -37t40.5 -17q20 0 49.5 14.5t76 54.5t113 111.5t158.5 184.5q0 2 2 4t6 2q2 0 9.5 -8.5t7.5 -24.5q0 -10 -4.5 -24.5t-20.5 -34.5q-98 -129 -178 -203t-138.5 -109.5t-94.5 -45t-44 -9.5q-61 0 -81.5 32t-20.5 71q0 47 12 78.5t12 37.5q0 4 -4 5l-4 -2 q-2 -2 -4 -3q-51 -57 -99 -89.5t-88 -50t-69 -21.5t-45 -4q-31 0 -51.5 11t-30.5 28.5t-14 38t-4 40.5zM66 119q0 -20 9 -39t40 -19q37 0 86 31t101 84t104.5 124t93.5 151q10 23 14 39t4 28q0 35 -16.5 45t-38.5 10q-49 0 -118 -48t-131 -118.5t-105 -149.5t-43 -138z M508 813q0 33 15.5 63.5t38 53t51 37t55.5 14.5q29 0 45 -20.5t16 -51.5q0 -37 -16.5 -66.5t-41 -52t-52 -35t-52.5 -12.5q-29 0 -44 19.5t-15 50.5zM559 834q0 -35 31 -35q23 0 39 12t27.5 27.5t16.5 32t5 22.5q0 35 -33 35q-12 0 -27.5 -8.5t-29 -21.5t-21.5 -29.5 t-8 -34.5z" />
<glyph unicode="&#xe6;" horiz-adv-x="1026" d="M-53 100q0 80 48 174.5t123 175t167 134t178 53.5q35 0 63.5 -14.5t44.5 -51.5q0 -2 2 -4q4 -4 7 -4q2 0 8 8q25 47 54.5 71t74.5 24q20 0 20 -13q0 -6 -16 -22l-16 -17q16 10 38 19q18 6 41 11t47 5q43 0 73 -20.5t30 -75.5q0 -49 -32 -107.5t-89 -109.5t-134 -87 t-167 -40q-2 2 -4 0l-4 -8q-16 -47 -17 -88q0 -33 9.5 -54.5t25 -33t33.5 -15.5t35 -4q37 0 84 13.5t108.5 53.5t136 111.5t164.5 190.5q2 4 4 6q4 4 9 4q4 0 10 -7.5t6 -23.5q0 -10 -9 -31.5t-24 -41.5q-33 -49 -90 -109.5t-127.5 -114t-149.5 -90.5t-157 -37 q-25 0 -57.5 5.5t-61 23.5t-49 55t-20.5 103v21.5t2 21.5v2q0 2 -4 2l-17 -17q-55 -55 -103 -87.5t-87 -50t-67 -22.5t-44 -5q-31 0 -51.5 11t-30.5 28.5t-14 38t-4 40.5zM66 119q0 -20 9 -39t40 -19q37 0 86 31t101 84t104.5 124t93.5 151q10 23 14 39t4 28q0 35 -16.5 45 t-38.5 10q-49 0 -118 -48t-131 -118.5t-105 -149.5t-43 -138zM528 274q0 -4 2 -6l2 -2q55 6 111.5 37t103 72t75 90t28.5 92q0 12 -9.5 21.5t-25.5 9.5q-29 0 -62.5 -22.5t-67.5 -56.5t-64.5 -75t-53.5 -78q-14 -27 -24 -43q-4 -10 -8.5 -20t-6.5 -19z" />
<glyph unicode="&#xe7;" horiz-adv-x="595" d="M-45 115q0 76 41 170t109.5 176t155.5 138t179 56q37 0 59.5 -8t35 -22.5t15.5 -29.5t3 -32q0 -51 -22.5 -90t-56.5 -64.5t-71.5 -38t-68.5 -12.5q-35 0 -49.5 7.5t-14.5 15.5q0 4 9 8q4 2 6 2q39 4 70.5 22.5t55 44t36 53.5t12.5 50q0 23 -7.5 29t-27.5 6 q-57 0 -119.5 -52t-115 -127t-85 -156t-32.5 -138q0 -66 28.5 -86.5t71.5 -20.5q111 0 225.5 88.5t266.5 282.5q0 2 2 4t4 2q4 0 9 -8.5t5 -24.5q0 -10 -4 -25.5t-18 -35.5q-39 -55 -92.5 -112.5t-114 -105.5t-125 -83t-125.5 -49l-4 -4l-2 -2q-6 -4 -13 -13q-4 -6 -9 -13 t-5 -11q0 -6 12.5 -11.5t26.5 -11.5t26.5 -18t12.5 -33q0 -43 -37 -65.5t-78 -22.5q-29 0 -52.5 10t-23.5 29q0 4 4.5 7t8.5 3q10 0 15 -5t30 -5t47 13.5t22 27.5q0 16 -12 22.5t-26.5 10.5t-26.5 9t-12 17q0 18 19 33.5t19 20.5l-2 2q-2 0 -4 2q-29 0 -61.5 4t-60 21.5 t-46 52t-18.5 96.5zM209 -49h8h-8z" />
<glyph unicode="&#xe8;" horiz-adv-x="638" d="M-23 117q0 98 44.5 193.5t113 171t150.5 121.5t157 46q43 0 73 -20.5t30 -75.5q0 -49 -32 -107.5t-89 -109.5t-134 -87t-167 -40q-2 2 -4 0l-4 -8q-16 -47 -17 -88q0 -33 9.5 -54.5t24.5 -33t33.5 -15.5t35.5 -4q37 0 84 13.5t108.5 53.5t136 111.5t164.5 190.5q2 4 4 6 q4 4 9 4q4 0 10 -7.5t6 -23.5q0 -10 -9 -31.5t-24 -41.5q-33 -49 -90 -109.5t-128 -114t-149.5 -90.5t-156.5 -37q-25 0 -57.5 5.5t-61.5 23.5t-49.5 55t-20.5 103zM139 274q0 -4 2 -6l2 -2q55 6 111.5 37t102.5 72t75 90t29 92q0 12 -9.5 21.5t-25.5 9.5q-39 0 -85 -37 t-88 -87t-72.5 -103.5t-41.5 -86.5zM344 928q2 20 21 20q8 0 12 -2l4 -2q66 -41 117 -79t86 -66q41 -35 71 -64q9 -8 9 -16q0 -10 -13 -10q-35 6 -76 18q-35 10 -79.5 28.5t-96.5 49.5q-39 35 -47 70.5t-8 52.5z" />
<glyph unicode="&#xe9;" horiz-adv-x="638" d="M-23 117q0 98 44.5 193.5t113 171t150.5 121.5t157 46q43 0 73 -20.5t30 -75.5q0 -49 -32 -107.5t-89 -109.5t-134 -87t-167 -40q-2 2 -4 0l-4 -8q-16 -47 -17 -88q0 -33 9.5 -54.5t24.5 -33t33.5 -15.5t35.5 -4q37 0 84 13.5t108.5 53.5t136 111.5t164.5 190.5q2 4 4 6 q4 4 9 4q4 0 10 -7.5t6 -23.5q0 -10 -9 -31.5t-24 -41.5q-33 -49 -90 -109.5t-128 -114t-149.5 -90.5t-156.5 -37q-25 0 -57.5 5.5t-61.5 23.5t-49.5 55t-20.5 103zM139 274q0 -4 2 -6l2 -2q55 6 111.5 37t102.5 72t75 90t29 92q0 12 -9.5 21.5t-25.5 9.5q-39 0 -85 -37 t-88 -87t-72.5 -103.5t-41.5 -86.5zM375 725q0 4 1 5t1 3v4q33 31 76 66q37 29 87 67.5t115 79.5q2 0 7 2q4 2 10 2q18 0 20 -20q0 -16 -8 -52t-47 -71q-6 -6 -37 -21.5t-69.5 -32t-78.5 -29.5t-67 -13q-10 0 -10 10z" />
<glyph unicode="&#xea;" horiz-adv-x="641" d="M-23 117q0 98 44.5 193.5t113 171t150.5 121.5t157 46q43 0 73 -20.5t30 -75.5q0 -49 -32 -107.5t-89 -109.5t-134 -87t-167 -40q-2 2 -4 0l-4 -8q-16 -47 -17 -88q0 -33 9.5 -54.5t24.5 -33t33.5 -15.5t35.5 -4q37 0 84 13.5t108.5 53.5t136 111.5t164.5 190.5q2 4 4 6 q4 4 9 4q4 0 10 -7.5t6 -23.5q0 -10 -9 -31.5t-24 -41.5q-33 -49 -90 -109.5t-128 -114t-149.5 -90.5t-156.5 -37q-25 0 -57.5 5.5t-61.5 23.5t-49.5 55t-20.5 103zM139 274q0 -4 2 -6l2 -2q55 6 111.5 37t102.5 72t75 90t29 92q0 12 -9.5 21.5t-25.5 9.5q-39 0 -85 -37 t-88 -87t-72.5 -103.5t-41.5 -86.5zM213 766q0 4 2 6q33 31 76 68q37 31 90 70.5t119 80.5q4 2 10 4q12 4 22 4t20.5 -4t18.5 -16q41 -59 61.5 -105.5t31.5 -78.5q10 -37 12 -66q-2 -2 -4 -6q-4 -8 -13 -8q-14 0 -37.5 20.5t-47 47t-43 55t-27.5 43.5q-35 -29 -78 -52.5 t-83 -41t-69.5 -26.5t-37.5 -9q-23 0 -23 14z" />
<glyph unicode="&#xeb;" horiz-adv-x="638" d="M-23 117q0 98 44.5 193.5t113 171t150.5 121.5t157 46q43 0 73 -20.5t30 -75.5q0 -49 -32 -107.5t-89 -109.5t-134 -87t-167 -40q-2 2 -4 0l-4 -8q-16 -47 -17 -88q0 -33 9.5 -54.5t24.5 -33t33.5 -15.5t35.5 -4q37 0 84 13.5t108.5 53.5t136 111.5t164.5 190.5q2 4 4 6 q4 4 9 4q4 0 10 -7.5t6 -23.5q0 -10 -9 -31.5t-24 -41.5q-33 -49 -90 -109.5t-128 -114t-149.5 -90.5t-156.5 -37q-25 0 -57.5 5.5t-61.5 23.5t-49.5 55t-20.5 103zM139 274q0 -4 2 -6l2 -2q55 6 111.5 37t102.5 72t75 90t29 92q0 12 -9.5 21.5t-25.5 9.5q-39 0 -85 -37 t-88 -87t-72.5 -103.5t-41.5 -86.5zM276 821q0 25 11.5 48.5t30 42t40 29.5t39.5 11q43 0 43 -47q0 -27 -12 -51.5t-30.5 -42.5t-39 -28.5t-36.5 -10.5q-23 0 -34.5 14.5t-11.5 34.5zM578 821q0 25 11 48.5t29.5 42t40 29.5t39.5 11q43 0 43 -47q0 -27 -12 -51.5 t-30.5 -42.5t-39 -28.5t-36.5 -10.5q-23 0 -34 14.5t-11 34.5z" />
<glyph unicode="&#xec;" horiz-adv-x="434" d="M-86 23q0 72 41 162.5t90 172.5q57 96 129 195q6 10 21 18q12 6 31.5 11.5t54.5 5.5q18 -2 18 -15q0 -4 -4 -12q-25 -39 -71 -107.5t-91 -143t-79 -145.5t-34 -116q0 -14 6.5 -30.5t34.5 -16.5q10 0 25.5 2t41.5 14.5t60.5 37t79.5 69.5q47 47 104.5 110.5t135.5 161.5 l4 4q2 2 6 2l4 -4q2 -2 4 -6q4 -8 4 -20q0 -10 -4 -25.5t-20 -38.5q-25 -37 -55.5 -73.5t-62.5 -70.5t-62.5 -62.5t-55.5 -49.5q-53 -45 -96 -71.5t-74.5 -41t-55.5 -17.5t-40 -3q-53 0 -71.5 32t-18.5 71zM106 936q2 20 21 20q8 0 12 -2l4 -2q66 -41 117 -78.5t86 -66.5 q41 -35 72 -64q8 -8 8 -16q0 -10 -12 -10q-35 6 -76 18q-35 10 -80 28.5t-96 49.5q-39 35 -47.5 71t-8.5 52z" />
<glyph unicode="&#xed;" horiz-adv-x="434" d="M-86 23q0 72 41 162.5t90 172.5q57 96 129 195q6 10 21 18q12 6 31.5 11.5t54.5 5.5q18 -2 18 -15q0 -4 -4 -12q-25 -39 -71 -107.5t-91 -143t-79 -145.5t-34 -116q0 -14 6.5 -30.5t34.5 -16.5q10 0 25.5 2t41.5 14.5t60.5 37t79.5 69.5q47 47 104.5 110.5t135.5 161.5 l4 4q2 2 6 2l4 -4q2 -2 4 -6q4 -8 4 -20q0 -10 -4 -25.5t-20 -38.5q-25 -37 -55.5 -73.5t-62.5 -70.5t-62.5 -62.5t-55.5 -49.5q-53 -45 -96 -71.5t-74.5 -41t-55.5 -17.5t-40 -3q-53 0 -71.5 32t-18.5 71zM285 743q0 4 1 5.5t1 3.5v4q33 31 75 65q37 29 87.5 68t115.5 80 q2 0 6 2t11 2q18 -1 20 -21q0 -16 -8 -52t-47 -71q-6 -6 -37 -21t-70 -31.5t-78.5 -30t-66.5 -13.5q-10 0 -10 10z" />
<glyph unicode="&#xee;" horiz-adv-x="434" d="M-86 23q0 72 41 162.5t90 172.5q57 96 129 195q6 10 21 18q12 6 31.5 11.5t54.5 5.5q18 -2 18 -15q0 -4 -4 -12q-25 -39 -71 -107.5t-91 -143t-79 -145.5t-34 -116q0 -14 6.5 -30.5t34.5 -16.5q10 0 25.5 2t41.5 14.5t60.5 37t79.5 69.5q47 47 104.5 110.5t135.5 161.5 l4 4q2 2 6 2l4 -4q2 -2 4 -6q4 -8 4 -20q0 -10 -4 -25.5t-20 -38.5q-25 -37 -55.5 -73.5t-62.5 -70.5t-62.5 -62.5t-55.5 -49.5q-53 -45 -96 -71.5t-74.5 -41t-55.5 -17.5t-40 -3q-53 0 -71.5 32t-18.5 71zM76 713q0 4 2 6q33 31 76 67q37 31 90 71t118 81q4 2 11 4 q12 4 22 4t20.5 -4t18.5 -16q41 -59 61.5 -105.5t30.5 -79.5q11 -36 13 -65q-2 -2 -4 -6q-4 -8 -13 -8q-14 0 -37.5 20t-47 47t-43 55.5t-27.5 42.5q-35 -29 -78 -52t-83 -40.5t-70 -27t-38 -9.5q-23 0 -22 15z" />
<glyph unicode="&#xef;" horiz-adv-x="434" d="M-86 23q0 72 41 162.5t90 172.5q57 96 129 195q6 10 21 18q12 6 31.5 11.5t54.5 5.5q18 -2 18 -15q0 -4 -4 -12q-25 -39 -71 -107.5t-91 -143t-79 -145.5t-34 -116q0 -14 6.5 -30.5t34.5 -16.5q10 0 25.5 2t41.5 14.5t60.5 37t79.5 69.5q47 47 104.5 110.5t135.5 161.5 l4 4q2 2 6 2l4 -4q2 -2 4 -6q4 -8 4 -20q0 -10 -4 -25.5t-20 -38.5q-25 -37 -55.5 -73.5t-62.5 -70.5t-62.5 -62.5t-55.5 -49.5q-53 -45 -96 -71.5t-74.5 -41t-55.5 -17.5t-40 -3q-53 0 -71.5 32t-18.5 71zM143 784q0 25 11.5 48.5t30 42t40 29.5t39.5 11q43 0 43 -47 q0 -27 -12 -51t-30.5 -42.5t-39 -29t-37.5 -10.5q-23 0 -34 14.5t-11 34.5zM444 784q0 25 11.5 48.5t30 42t40 29.5t39.5 11q43 0 43 -47q0 -27 -12 -51t-30.5 -42.5t-39 -29t-37.5 -10.5q-23 0 -34 14.5t-11 34.5z" />
<glyph unicode="&#xf0;" horiz-adv-x="815" d="M-57 96q0 78 43 170t112.5 172t159.5 134.5t184 54.5q35 0 66 -13.5t47 -50.5l2 -2q4 -4 6 -4q6 0 8 6q27 29 54.5 71t56.5 91q-61 0 -97 -1t-56.5 -2t-30 -2t-15.5 -1q-18 0 -18 14q0 2 1 3t1 3v2q0 2 6 11.5t18.5 20.5t32 20.5t45.5 9.5h152q35 76 59.5 146.5 t24.5 111.5q0 43 -15.5 70.5t-40 43t-54 20.5t-58.5 5q-66 0 -123 -20.5t-100 -51t-67.5 -66.5t-24.5 -65q0 -27 22.5 -43t69.5 -16q25 0 58.5 7t66 18.5t60.5 27t42 31.5q10 8 18 8t9 -10q0 -23 -26 -50.5t-68 -52t-93 -41t-104 -16.5q-76 0 -110 29t-34 72t32 95t87.5 96 t132 73.5t166.5 29.5q117 0 179.5 -58t62.5 -155q0 -53 -19.5 -114.5t-48.5 -124.5h56q41 0 63.5 1t38.5 5q2 2 4 2h8q11 0 11 -8q0 -4 -7 -15q-27 -45 -77 -55t-121 -10h-17q-33 -61 -71.5 -123.5t-76.5 -120t-69.5 -110t-54.5 -95.5q-20 -39 -39 -75q-16 -33 -28.5 -69 t-12.5 -67q0 -18 8.5 -36.5t36.5 -18.5q57 0 151.5 90t250.5 283l2 2q2 2 4 2q4 0 8 -9t4 -26q0 -12 -5 -28.5t-22 -38.5q-102 -133 -180 -205t-132 -105.5t-86 -40t-42 -6.5q-59 0 -79.5 37t-20.5 78q0 39 8 68.5t10 33.5q0 6 -4 7q-2 0 -6 -5q-51 -59 -101.5 -93 t-90.5 -51t-67.5 -21.5t-31.5 -4.5q-33 0 -53.5 11.5t-31.5 29t-15 39t-4 41.5zM55 111q0 -16 7.5 -33t33.5 -17q43 0 90 28t92.5 70t85 94t70.5 101t49.5 90.5t18.5 61.5q-4 37 -20.5 49t-45.5 12q-45 0 -109.5 -47t-125 -116.5t-103.5 -148.5t-43 -144z" />
<glyph unicode="&#xf1;" horiz-adv-x="1105" d="M27 309q0 8 1 17.5t7 21.5q72 92 149 166q66 63 146 114.5t157 51.5q47 0 64.5 -20.5t17.5 -51.5q0 -49 -22.5 -100t-48 -96t-48 -78t-22.5 -43q0 -4 2 -4q8 0 14 8q4 4 29 28.5t60.5 59.5t82 74t94.5 71.5t93 54t82 21.5q23 0 44 -13t21 -52q0 -41 -22.5 -97.5t-50 -116 t-51 -112.5t-23.5 -88q0 -12 6 -25.5t31 -13.5q12 0 33.5 9t57.5 37t86 80t122 138q16 18 30.5 35.5t20.5 20.5l4 2q6 0 8 -7q2 -2 4 -6q4 -8 4 -18t-6 -27.5t-22 -40.5q-18 -23 -36 -44t-34 -42q-59 -70 -111.5 -113.5t-95.5 -68.5t-77.5 -34t-63.5 -9q-31 0 -47.5 11 t-24.5 26.5t-9 30t-1 20.5q0 45 22.5 100.5t50 110.5t50 105.5t22.5 80.5q0 16 -6 20.5t-16 4.5q-29 0 -74 -29.5t-98 -77t-109.5 -104.5t-104.5 -112.5t-85 -101.5t-51 -73q-20 -37 -50 -45t-47 -8q-18 0 -24 10q-4 6 -4 10q37 90 95 196t112 200q23 39 43 76 q16 31 29.5 63.5t13.5 52.5q0 23 -17 23q-12 0 -42 -7.5t-75 -39.5q-39 -29 -79.5 -66t-77.5 -73.5t-64.5 -67.5t-40.5 -47q-6 -6 -12 -6t-10 6q-2 4 -4 6v4q0 2 -1 5t-1 7zM592 809q0 29 36 50.5t83 21.5q29 0 48 -6.5t36.5 -13.5t36 -13t42.5 -6q23 0 37.5 6t23.5 14 t16 14.5t16 6.5q14 0 14 -23q0 -31 -11.5 -51.5t-27.5 -31.5t-33.5 -16t-29.5 -5q-31 0 -53.5 9t-44 20.5t-44 20.5t-55.5 9q-39 0 -52.5 -10t-25.5 -10t-12 14z" />
<glyph unicode="&#xf2;" horiz-adv-x="780" d="M-43 100q0 86 43 182.5t110.5 178.5t150.5 136t163 54q14 0 31.5 -3t32 -11t24.5 -23.5t10 -38.5q0 -12 -6 -16t-10 -4q-12 0 -22.5 10t-41.5 10q-51 0 -115.5 -46t-120.5 -115.5t-94 -152.5t-38 -159q0 -66 30.5 -88t65.5 -22q47 0 88 22.5t72 51.5q37 33 67 73 q-39 23 -60.5 45.5t-21.5 75.5q0 47 22.5 91t57.5 78t76 55.5t76 21.5q20 0 34.5 -12.5t14.5 -44.5q0 -31 -14.5 -74t-30.5 -84q-20 -47 -47 -98h37q31 0 65.5 9t75.5 33.5t87 68.5t99 112q2 0 4 2t7 2q12 0 16 -14q2 -9 2 -17q0 -10 -4 -23.5t-19 -31.5q-51 -66 -101 -107 t-95 -64.5t-85 -31.5t-73 -8h-30.5t-30.5 2q-39 -55 -92 -100q-45 -39 -106.5 -71t-137.5 -32q-25 0 -54.5 8.5t-54 29t-41 55t-16.5 85.5zM319 924q2 20 21 20q8 0 12 -2l4 -2q66 -41 117 -79t86 -66q41 -35 72 -64q8 -8 8 -16q0 -10 -12 -10q-35 6 -76 18q-35 10 -80 28.5 t-96 49.5q-39 35 -47.5 70.5t-8.5 52.5zM399 279q0 -29 12.5 -44.5t32.5 -25.5q23 39 39 76q14 33 25.5 66.5t11.5 58.5q0 16 -6 18q-4 2 -6 2q-12 0 -31.5 -10t-36 -29.5t-29 -48.5t-12.5 -63z" />
<glyph unicode="&#xf3;" horiz-adv-x="780" d="M-43 100q0 86 43 182.5t110.5 178.5t150.5 136t163 54q14 0 31.5 -3t32 -11t24.5 -23.5t10 -38.5q0 -12 -6 -16t-10 -4q-12 0 -22.5 10t-41.5 10q-51 0 -115.5 -46t-120.5 -115.5t-94 -152.5t-38 -159q0 -66 30.5 -88t65.5 -22q47 0 88 22.5t72 51.5q37 33 67 73 q-39 23 -60.5 45.5t-21.5 75.5q0 47 22.5 91t57.5 78t76 55.5t76 21.5q20 0 34.5 -12.5t14.5 -44.5q0 -31 -14.5 -74t-30.5 -84q-20 -47 -47 -98h37q31 0 65.5 9t75.5 33.5t87 68.5t99 112q2 0 4 2t7 2q12 0 16 -14q2 -9 2 -17q0 -10 -4 -23.5t-19 -31.5q-51 -66 -101 -107 t-95 -64.5t-85 -31.5t-73 -8h-30.5t-30.5 2q-39 -55 -92 -100q-45 -39 -106.5 -71t-137.5 -32q-25 0 -54.5 8.5t-54 29t-41 55t-16.5 85.5zM399 279q0 -29 12.5 -44.5t32.5 -25.5q23 39 39 76q14 33 25.5 66.5t11.5 58.5q0 16 -6 18q-4 2 -6 2q-12 0 -31.5 -10t-36 -29.5 t-29 -48.5t-12.5 -63zM487 725q0 4 1 5t1 3v4q33 31 76 66q37 29 87 67.5t116 79.5q2 0 6 2t10 2q19 0 21 -20q0 -16 -8.5 -52t-46.5 -71q-6 -6 -37 -21.5t-70 -32t-79 -29.5t-66 -13q-10 0 -11 10z" />
<glyph unicode="&#xf4;" horiz-adv-x="780" d="M-43 100q0 86 43 182.5t110.5 178.5t150.5 136t163 54q14 0 31.5 -3t32 -11t24.5 -23.5t10 -38.5q0 -12 -6 -16t-10 -4q-12 0 -22.5 10t-41.5 10q-51 0 -115.5 -46t-120.5 -115.5t-94 -152.5t-38 -159q0 -66 30.5 -88t65.5 -22q47 0 88 22.5t72 51.5q37 33 67 73 q-39 23 -60.5 45.5t-21.5 75.5q0 47 22.5 91t57.5 78t76 55.5t76 21.5q20 0 34.5 -12.5t14.5 -44.5q0 -31 -14.5 -74t-30.5 -84q-20 -47 -47 -98h37q31 0 65.5 9t75.5 33.5t87 68.5t99 112q2 0 4 2t7 2q12 0 16 -14q2 -9 2 -17q0 -10 -4 -23.5t-19 -31.5q-51 -66 -101 -107 t-95 -64.5t-85 -31.5t-73 -8h-30.5t-30.5 2q-39 -55 -92 -100q-45 -39 -106.5 -71t-137.5 -32q-25 0 -54.5 8.5t-54 29t-41 55t-16.5 85.5zM240 731q0 4 2 6q33 31 75 68q37 31 90.5 70.5t118.5 80.5q4 2 11 5q12 4 22 4t20.5 -4.5t18.5 -16.5q41 -59 61.5 -105t30.5 -79 q10 -37 12 -66q-2 -2 -4 -6q-4 -8 -12 -8q-14 0 -37.5 20.5t-47 47t-43 55t-28.5 43.5q-35 -29 -77.5 -52.5t-82.5 -41t-70 -26.5t-38 -9q-23 0 -22 14zM399 279q0 -29 12.5 -44.5t32.5 -25.5q23 39 39 76q14 33 25.5 66.5t11.5 58.5q0 16 -6 18q-4 2 -6 2q-12 0 -31.5 -10 t-36 -29.5t-29 -48.5t-12.5 -63z" />
<glyph unicode="&#xf5;" horiz-adv-x="780" d="M-43 100q0 86 43 182.5t110.5 178.5t150.5 136t163 54q14 0 31.5 -3t32 -11t24.5 -23.5t10 -38.5q0 -12 -6 -16t-10 -4q-12 0 -22.5 10t-41.5 10q-51 0 -115.5 -46t-120.5 -115.5t-94 -152.5t-38 -159q0 -66 30.5 -88t65.5 -22q47 0 88 22.5t72 51.5q37 33 67 73 q-39 23 -60.5 45.5t-21.5 75.5q0 47 22.5 91t57.5 78t76 55.5t76 21.5q20 0 34.5 -12.5t14.5 -44.5q0 -31 -14.5 -74t-30.5 -84q-20 -47 -47 -98h37q31 0 65.5 9t75.5 33.5t87 68.5t99 112q2 0 4 2t7 2q12 0 16 -14q2 -9 2 -17q0 -10 -4 -23.5t-19 -31.5q-51 -66 -101 -107 t-95 -64.5t-85 -31.5t-73 -8h-30.5t-30.5 2q-39 -55 -92 -100q-45 -39 -106.5 -71t-137.5 -32q-25 0 -54.5 8.5t-54 29t-41 55t-16.5 85.5zM342 793q0 29 36 50t83 21q29 0 48 -6t36.5 -13t36 -13.5t43.5 -6.5q23 0 37 6.5t23 14.5t16.5 14t15.5 6q14 1 14 -22 q0 -31 -11 -51.5t-27.5 -31.5t-34 -16.5t-29.5 -5.5q-31 0 -53.5 9.5t-44 20.5t-44 20.5t-55.5 9.5q-39 0 -52 -10.5t-26 -10.5q-12 0 -12 15zM399 279q0 -29 12.5 -44.5t32.5 -25.5q23 39 39 76q14 33 25.5 66.5t11.5 58.5q0 16 -6 18q-4 2 -6 2q-12 0 -31.5 -10t-36 -29.5 t-29 -48.5t-12.5 -63z" />
<glyph unicode="&#xf6;" horiz-adv-x="780" d="M-43 100q0 86 43 182.5t110.5 178.5t150.5 136t163 54q14 0 31.5 -3t32 -11t24.5 -23.5t10 -38.5q0 -12 -6 -16t-10 -4q-12 0 -22.5 10t-41.5 10q-51 0 -115.5 -46t-120.5 -115.5t-94 -152.5t-38 -159q0 -66 30.5 -88t65.5 -22q47 0 88 22.5t72 51.5q37 33 67 73 q-39 23 -60.5 45.5t-21.5 75.5q0 47 22.5 91t57.5 78t76 55.5t76 21.5q20 0 34.5 -12.5t14.5 -44.5q0 -31 -14.5 -74t-30.5 -84q-20 -47 -47 -98h37q31 0 65.5 9t75.5 33.5t87 68.5t99 112q2 0 4 2t7 2q12 0 16 -14q2 -9 2 -17q0 -10 -4 -23.5t-19 -31.5q-51 -66 -101 -107 t-95 -64.5t-85 -31.5t-73 -8h-30.5t-30.5 2q-39 -55 -92 -100q-45 -39 -106.5 -71t-137.5 -32q-25 0 -54.5 8.5t-54 29t-41 55t-16.5 85.5zM315 815q0 25 11.5 48.5t30 42t40 29.5t39.5 11q43 0 43 -47q0 -27 -12 -51.5t-30.5 -43t-39 -28.5t-37.5 -10q-23 0 -34 14.5 t-11 34.5zM399 279q0 -29 12.5 -44.5t32.5 -25.5q23 39 39 76q14 33 25.5 66.5t11.5 58.5q0 16 -6 18q-4 2 -6 2q-12 0 -31.5 -10t-36 -29.5t-29 -48.5t-12.5 -63zM616 815q0 25 11.5 48.5t30 42t40 29.5t39.5 11q43 0 43 -47q0 -27 -12 -51.5t-30.5 -43t-39 -28.5 t-36.5 -10q-23 0 -34.5 14.5t-11.5 34.5z" />
<glyph unicode="&#xf7;" horiz-adv-x="673" d="M6 549q0 2 1 3t1 3v2q0 2 6 10t18.5 18.5t32 18.5t46.5 8h413q41 0 63.5 1t39.5 5q2 2 4 3h8q10 -1 10 -9q0 -4 -6 -14q-27 -45 -77 -52t-122 -7q-18 0 -56 1t-79 1h-100h-104.5t-50 -2t-18.5 -3t-11 -1q-18 0 -19 14zM143 315q0 25 11.5 48.5t29 43t39 31t39.5 11.5 q20 0 31.5 -13.5t11.5 -36.5q0 -27 -12 -50t-30.5 -41.5t-39 -29t-39.5 -10.5q-20 0 -30.5 13.5t-10.5 33.5zM375 748q0 25 11 48t28.5 42.5t39 31t40.5 11.5q20 0 31.5 -13.5t11.5 -36.5q0 -27 -12.5 -50t-31 -41.5t-39 -29t-38.5 -10.5q-20 0 -30.5 13.5t-10.5 34.5z" />
<glyph unicode="&#xf8;" horiz-adv-x="780" d="M-199 -158l172 172q-16 37 -16 86q0 86 43 182.5t110.5 178.5t150.5 136t163 54q14 0 31.5 -3t32 -11t24.5 -23.5t10 -38.5q0 -12 -6 -16t-10 -4q-12 0 -22.5 10t-41.5 10q-51 0 -113.5 -44t-117.5 -111.5t-94 -149.5t-43 -155q100 98 209.5 207.5l201.5 201.5 q109 109 215 211q4 2 22.5 14.5t63.5 12.5q14 0 15 -8q0 -6 -62.5 -67.5t-183.5 -180.5q16 -4 28.5 -16.5t12.5 -40.5q0 -31 -14.5 -74t-30.5 -84q-20 -47 -47 -98h37q31 0 65.5 9t75.5 33.5t87 68.5t99 112q2 0 4 2t7 2q12 0 16 -14q2 -9 2 -17q0 -10 -4 -23.5t-19 -31.5 q-51 -66 -101 -107t-95 -64.5t-85 -31.5t-73 -8h-30.5t-30.5 2q-39 -55 -92 -100q-45 -39 -106.5 -71t-137.5 -32q-27 0 -57.5 9.5t-55.5 31.5q-29 -29 -55.5 -56.5t-56.5 -58.5q-16 -16 -43 -20t-39 -4q-10 2 -12.5 8t-2.5 10zM86 39q12 -29 35.5 -38t48.5 -9q47 0 88 22.5 t72 51.5q36 32 67 73q-39 23 -60.5 45.5t-21.5 75.5v8q-53 -53 -110.5 -109.5t-118.5 -119.5zM399 279q0 -29 12.5 -44.5t32.5 -25.5q23 39 39 76q14 33 25.5 66.5t11.5 58.5q0 16 -6 18q-4 2 -6 2q-12 0 -31.5 -10t-36 -29.5t-29 -48.5t-12.5 -63z" />
<glyph unicode="&#xf9;" horiz-adv-x="800" d="M-53 82q0 35 12 77t31.5 88t44 93t49.5 92q59 104 135 217q8 10 29.5 23.5t79.5 13.5q16 0 16 -14q0 -6 -2 -8t-2 -5q-12 -16 -38 -56t-57.5 -93t-66.5 -114.5t-63 -119.5q-14 -29 -27 -57q-10 -25 -18.5 -52.5t-8.5 -49.5q0 -12 7.5 -34t40.5 -22q18 0 48.5 14.5 t77 56.5t106.5 121t138 208q53 88 82 127q6 10 21 18q12 8 32.5 13.5t55.5 5.5q16 0 16 -15q0 -8 -2 -10t-2 -4q-20 -29 -59 -90.5t-88 -155.5q-20 -43 -37 -84q-14 -35 -26.5 -74.5t-12.5 -74.5q0 -16 6 -36t35 -20q33 0 74.5 29t90 74t98.5 102.5t99 114.5q0 2 2 4t6 2 q2 0 9.5 -8.5t7.5 -24.5q0 -10 -5 -24.5t-20 -34.5q-33 -47 -80 -101.5t-102 -101.5t-112.5 -77.5t-110.5 -30.5q-59 0 -78 33.5t-19 74.5q0 20 3.5 37.5t7.5 34.5q4 18 8 33q0 8 -4 8q-2 0 -6 -4q-45 -61 -99 -111q-45 -41 -103 -77t-120 -36q-59 0 -79.5 32t-20.5 73z M317 971q2 20 21 20q8 0 12 -2l4 -2q66 -41 117 -79t86 -66q41 -35 72 -64q8 -8 8 -16q0 -10 -12 -10q-35 6 -76 18q-35 10 -80 28.5t-96 49.5q-39 35 -47.5 70.5t-8.5 52.5z" />
<glyph unicode="&#xfa;" horiz-adv-x="800" d="M-53 82q0 35 12 77t31.5 88t44 93t49.5 92q59 104 135 217q8 10 29.5 23.5t79.5 13.5q16 0 16 -14q0 -6 -2 -8t-2 -5q-12 -16 -38 -56t-57.5 -93t-66.5 -114.5t-63 -119.5q-14 -29 -27 -57q-10 -25 -18.5 -52.5t-8.5 -49.5q0 -12 7.5 -34t40.5 -22q18 0 48.5 14.5 t77 56.5t106.5 121t138 208q53 88 82 127q6 10 21 18q12 8 32.5 13.5t55.5 5.5q16 0 16 -15q0 -8 -2 -10t-2 -4q-20 -29 -59 -90.5t-88 -155.5q-20 -43 -37 -84q-14 -35 -26.5 -74.5t-12.5 -74.5q0 -16 6 -36t35 -20q33 0 74.5 29t90 74t98.5 102.5t99 114.5q0 2 2 4t6 2 q2 0 9.5 -8.5t7.5 -24.5q0 -10 -5 -24.5t-20 -34.5q-33 -47 -80 -101.5t-102 -101.5t-112.5 -77.5t-110.5 -30.5q-59 0 -78 33.5t-19 74.5q0 20 3.5 37.5t7.5 34.5q4 18 8 33q0 8 -4 8q-2 0 -6 -4q-45 -61 -99 -111q-45 -41 -103 -77t-120 -36q-59 0 -79.5 32t-20.5 73z M473 756q0 4 1 5t1 3v4q33 31 76 66q37 29 87 67.5t116 79.5q2 0 6 2t10 2q19 0 21 -20q0 -16 -8.5 -52t-47.5 -71q-6 -6 -36.5 -21.5t-69.5 -32t-79 -30t-67 -13.5q-10 0 -10 11z" />
<glyph unicode="&#xfb;" horiz-adv-x="800" d="M-53 82q0 35 12 77t31.5 88t44 93t49.5 92q59 104 135 217q8 10 29.5 23.5t79.5 13.5q16 0 16 -14q0 -6 -2 -8t-2 -5q-12 -16 -38 -56t-57.5 -93t-66.5 -114.5t-63 -119.5q-14 -29 -27 -57q-10 -25 -18.5 -52.5t-8.5 -49.5q0 -12 7.5 -34t40.5 -22q18 0 48.5 14.5 t77 56.5t106.5 121t138 208q53 88 82 127q6 10 21 18q12 8 32.5 13.5t55.5 5.5q16 0 16 -15q0 -8 -2 -10t-2 -4q-20 -29 -59 -90.5t-88 -155.5q-20 -43 -37 -84q-14 -35 -26.5 -74.5t-12.5 -74.5q0 -16 6 -36t35 -20q33 0 74.5 29t90 74t98.5 102.5t99 114.5q0 2 2 4t6 2 q2 0 9.5 -8.5t7.5 -24.5q0 -10 -5 -24.5t-20 -34.5q-33 -47 -80 -101.5t-102 -101.5t-112.5 -77.5t-110.5 -30.5q-59 0 -78 33.5t-19 74.5q0 20 3.5 37.5t7.5 34.5q4 18 8 33q0 8 -4 8q-2 0 -6 -4q-45 -61 -99 -111q-45 -41 -103 -77t-120 -36q-59 0 -79.5 32t-20.5 73z M266 766q0 4 2 6q33 31 76 68q37 31 90 70.5t119 80.5q4 2 10 4q12 4 23 4q10 0 20 -4t19 -16q41 -59 61.5 -105.5t30.5 -78.5q10 -37 12 -66q-2 -2 -4 -6q-4 -8 -12 -8q-14 0 -38 20.5t-47.5 47t-43 55t-27.5 43.5q-35 -29 -78 -52.5t-83 -41t-69.5 -26.5t-37.5 -9 q-23 0 -23 14z" />
<glyph unicode="&#xfc;" horiz-adv-x="800" d="M-53 82q0 35 12 77t31.5 88t44 93t49.5 92q59 104 135 217q8 10 29.5 23.5t79.5 13.5q16 0 16 -14q0 -6 -2 -8t-2 -5q-12 -16 -38 -56t-57.5 -93t-66.5 -114.5t-63 -119.5q-14 -29 -27 -57q-10 -25 -18.5 -52.5t-8.5 -49.5q0 -12 7.5 -34t40.5 -22q18 0 48.5 14.5 t77 56.5t106.5 121t138 208q53 88 82 127q6 10 21 18q12 8 32.5 13.5t55.5 5.5q16 0 16 -15q0 -8 -2 -10t-2 -4q-20 -29 -59 -90.5t-88 -155.5q-20 -43 -37 -84q-14 -35 -26.5 -74.5t-12.5 -74.5q0 -16 6 -36t35 -20q33 0 74.5 29t90 74t98.5 102.5t99 114.5q0 2 2 4t6 2 q2 0 9.5 -8.5t7.5 -24.5q0 -10 -5 -24.5t-20 -34.5q-33 -47 -80 -101.5t-102 -101.5t-112.5 -77.5t-110.5 -30.5q-59 0 -78 33.5t-19 74.5q0 20 3.5 37.5t7.5 34.5q4 18 8 33q0 8 -4 8q-2 0 -6 -4q-45 -61 -99 -111q-45 -41 -103 -77t-120 -36q-59 0 -79.5 32t-20.5 73z M301 795q0 25 11.5 48t29.5 41.5t39.5 30t40.5 11.5q43 0 43 -47q0 -27 -12.5 -51.5t-31 -43t-39 -29t-36.5 -10.5q-23 0 -34 14.5t-11 35.5zM602 795q0 25 11.5 48t30 41.5t40 30t39.5 11.5q43 0 43 -47q0 -27 -12.5 -51.5t-30.5 -43t-38.5 -29t-37.5 -10.5q-23 0 -34 14.5 t-11 35.5z" />
<glyph unicode="&#xfd;" horiz-adv-x="1017" d="M-100 -289q0 45 34.5 82t88 63.5t120 41t129.5 14.5q31 0 64 -3t63 -11q23 41 44.5 74.5t37.5 62.5q-33 -14 -63 -27q-27 -10 -55.5 -19t-51.5 -9q-57 0 -75.5 33.5t-18.5 72.5q0 63 29.5 130t64.5 129.5t65 116.5t30 93q0 8 -3.5 17.5t-19.5 9.5q-33 0 -71 -26t-81 -68 t-87 -95t-89 -108q-4 -4 -9 -11.5t-9 -7.5q-10 0 -11 13.5t-1 23.5q0 8 1 17.5t7 21.5q25 37 72 93.5t104 108.5t118.5 90t116.5 38q47 0 60.5 -28t13.5 -48q0 -55 -27.5 -116.5t-61.5 -125t-62.5 -125t-28.5 -114.5q0 -25 9 -37t40 -12q23 0 49.5 10t48.5 22q27 14 56 33 q12 18 35.5 66.5t56.5 108t74 124t88 117.5t100 88t109 35q65 -1 65 -62q0 -57 -41 -120.5t-103.5 -126t-136 -121t-139.5 -105.5q-4 -10 -10 -19.5t-10 -17.5q-29 -49 -64 -110.5t-76 -126.5q47 -27 78 -74t31 -102q0 -90 -48 -193.5t-120 -193t-153.5 -148.5t-149.5 -59 q-37 0 -52.5 24.5t-15.5 59.5q0 29 7.5 56.5t15.5 51.5q8 29 20 55q23 55 53.5 118t65.5 127.5t71 128t70 122.5q-18 4 -40.5 6t-45.5 2q-76 0 -163.5 -30.5t-167.5 -116.5q-2 -6 -8 -10q-12 -8 -21 -9q-4 0 -8 5q-8 8 -8 30zM162 -776q0 -16 6 -25.5t27 -9.5q39 0 95 47 t108.5 118t89 155.5t36.5 160.5q0 39 -10 63.5t-25 41.5q-16 18 -34 26q-47 -80 -94.5 -160.5t-86 -151.5t-66.5 -125t-34 -85q-2 -10 -6 -18q-6 -16 -6 -37zM659 739q0 4 1.5 5t1.5 4v4q33 31 75 65q37 29 87 68t116 80q2 0 6 2t10 2q19 -1 21 -21q0 -16 -8 -52t-47 -71 q-6 -6 -37 -21.5t-70 -31.5t-79 -29.5t-66 -13.5q-10 0 -11 10zM709 242q18 12 65 52t95.5 91t86 102t37.5 86q0 20 -20 21q-16 0 -37 -15.5t-42.5 -40t-44 -56t-42.5 -64.5q-49 -78 -98 -176z" />
<glyph unicode="&#xfe;" horiz-adv-x="806" d="M-444 -461q0 2 2 2q18 25 45.5 70t61.5 101.5t72 119t75 123.5q86 143 184 311q33 53 75 123t87 146.5t92 157.5t92 157q104 178 215 367q12 20 36.5 29t47.5 9q33 0 33 -14q0 -6 -2 -8t-2 -4q-12 -18 -39 -61.5t-61.5 -101.5t-74.5 -126t-81 -135q-96 -158 -207 -348 q-6 -8 -6 -13q0 -4 4 -4q6 0 8 2t4 2q37 35 77 72t82 67.5t85 50t88 19.5q29 0 56.5 -18.5t27.5 -65.5q0 -18 -15.5 -68t-56.5 -128q-33 -61 -59 -117q-23 -47 -42.5 -96t-19.5 -78q0 -12 6.5 -25.5t34.5 -13.5q14 0 40 7t68 38t103.5 92.5t147.5 169.5q16 18 30.5 35.5 t20.5 20.5l4 2q6 0 8 -7q2 -2 4 -6q4 -8 4 -18t-6 -27.5t-22 -40.5q-145 -184 -258 -268t-215 -84q-33 0 -51.5 11.5t-26.5 26.5t-9 29.5t-1 20.5q0 37 19 92.5t42 106.5q27 59 61 123q47 82 61.5 120.5t14.5 44.5q0 23 -10 31t-23 8q-31 0 -72.5 -27.5t-82.5 -65.5 t-77 -75.5t-54 -58.5q-47 -53 -109 -135q-53 -72 -124.5 -182.5t-162.5 -268.5q-29 -47 -47 -78.5l-30 -52.5q-14 -23 -25 -37q-29 -49 -63.5 -63t-55.5 -14q-18 0 -23 6t-5 12v8z" />
<glyph unicode="&#xff;" horiz-adv-x="1017" d="M-100 -289q0 45 34.5 82t88 63.5t120 41t129.5 14.5q31 0 64 -3t63 -11q23 41 44.5 74.5t37.5 62.5q-33 -14 -63 -27q-27 -10 -55.5 -19t-51.5 -9q-57 0 -75.5 33.5t-18.5 72.5q0 63 29.5 130t64.5 129.5t65 116.5t30 93q0 8 -3.5 17.5t-19.5 9.5q-33 0 -71 -26t-81 -68 t-87 -95t-89 -108q-4 -4 -9 -11.5t-9 -7.5q-10 0 -11 13.5t-1 23.5q0 8 1 17.5t7 21.5q25 37 72 93.5t104 108.5t118.5 90t116.5 38q47 0 60.5 -28t13.5 -48q0 -55 -27.5 -116.5t-61.5 -125t-62.5 -125t-28.5 -114.5q0 -25 9 -37t40 -12q23 0 49.5 10t48.5 22q27 14 56 33 q12 18 35.5 66.5t56.5 108t74 124t88 117.5t100 88t109 35q65 -1 65 -62q0 -57 -41 -120.5t-103.5 -126t-136 -121t-139.5 -105.5q-4 -10 -10 -19.5t-10 -17.5q-29 -49 -64 -110.5t-76 -126.5q47 -27 78 -74t31 -102q0 -90 -48 -193.5t-120 -193t-153.5 -148.5t-149.5 -59 q-37 0 -52.5 24.5t-15.5 59.5q0 29 7.5 56.5t15.5 51.5q8 29 20 55q23 55 53.5 118t65.5 127.5t71 128t70 122.5q-18 4 -40.5 6t-45.5 2q-76 0 -163.5 -30.5t-167.5 -116.5q-2 -6 -8 -10q-12 -8 -21 -9q-4 0 -8 5q-8 8 -8 30zM162 -776q0 -16 6 -25.5t27 -9.5q39 0 95 47 t108.5 118t89 155.5t36.5 160.5q0 39 -10 63.5t-25 41.5q-16 18 -34 26q-47 -80 -94.5 -160.5t-86 -151.5t-66.5 -125t-34 -85q-2 -10 -6 -18q-6 -16 -6 -37zM514 827q0 25 11.5 48.5t29.5 42t39.5 29.5t40.5 11q43 0 43 -47q0 -27 -12.5 -51t-31 -42.5t-39 -29t-36.5 -10.5 q-23 0 -34 14.5t-11 34.5zM709 242q18 12 65 52t95.5 91t86 102t37.5 86q0 20 -20 21q-16 0 -37 -15.5t-42.5 -40t-44 -56t-42.5 -64.5q-49 -78 -98 -176zM815 827q0 25 11.5 48.5t29.5 42t40 29.5t40 11q43 0 43 -47q0 -27 -12.5 -51t-30.5 -42.5t-38.5 -29t-37.5 -10.5 q-23 0 -34 14.5t-11 34.5z" />
<glyph unicode="&#x152;" horiz-adv-x="1458" d="M-18 106q0 92 20.5 169t42.5 137q27 68 61 125l-2 32q-6 115 48.5 242t154 233.5t233.5 176t285 69.5q35 0 76 -6t82 -24q31 4 65.5 7t71.5 3q96 0 168 -12.5t140.5 -26.5t146.5 -26.5t182 -12.5q72 0 134.5 10t107.5 39q2 2 6 4t10 2t8 -2l5 -4q2 -2 2 -10 q0 -25 -33 -50.5t-84 -45t-113.5 -32.5t-122.5 -13q-100 0 -177 16t-145.5 36.5t-136 37t-147.5 16.5q33 -37 52.5 -93t19.5 -138q0 -23 -1 -45.5t-3 -45.5q55 72 99 111t75 59q37 23 63 29q2 2 6 2h11q12 0 14 -6v-2q0 -4 -4 -11t-25 -24q-29 -20 -65 -69q-33 -41 -80 -115 t-111 -197l40 -5t83 -3t127 10.5t107 40.5q2 0 4 2t10 2q10 0 10 -10q0 -8 -9 -29.5t-32.5 -45t-64.5 -41t-103 -17.5q-72 0 -126 12.5t-83 12.5l-8 6q-51 -150 -132 -285t-185 -244q201 -45 374 -108.5t335.5 -120.5t326.5 -98t344 -41q141 0 284.5 34.5t268.5 131.5h6 q4 0 5 1t6 1q6 0 10 -4q2 -3 2 -5q0 -16 -15 -34q-8 -8 -16 -19q-70 -72 -156 -112.5t-165.5 -60t-143 -25t-92.5 -5.5q-182 0 -354 50.5t-344 119t-351.5 139t-375.5 109.5q-104 -94 -219 -149.5t-236 -55.5q-76 0 -128 25t-84 66t-46 95t-14 115zM94 96q0 -45 10.5 -84 t34 -68.5t61.5 -46t93 -16.5q92 0 184 53.5t174 142.5t152.5 201.5t122 232.5t80 236.5t28.5 210.5q0 119 -52 187.5t-194 68.5q-70 0 -140 -24.5t-134.5 -66.5t-120 -97t-97.5 -113.5t-65.5 -118t-23.5 -110.5q66 78 126 122t107 64.5t78 24.5t35 4q8 0 15 -2t7 -10 q0 -14 -16 -23.5t-39 -21.5q-49 -27 -102 -72q-45 -39 -98.5 -98.5t-102.5 -151.5q8 -20 28.5 -43.5t61.5 -23.5q16 0 25 2q2 2 6 2h10q14 0 14 -13q0 -14 -27.5 -41.5t-80.5 -27.5q-57 0 -88 35q-18 -45 -35 -99q-14 -45 -25.5 -100t-11.5 -115z" />
<glyph unicode="&#x153;" horiz-adv-x="1140" d="M-43 80q0 86 43 182t110.5 178t150.5 136.5t163 54.5q14 0 31.5 -3t32 -11.5t24.5 -23.5t10 -38q0 -12 -6 -16t-10 -4q-12 0 -22.5 10t-41.5 10q-51 0 -115.5 -46t-120.5 -115.5t-94 -152.5t-38 -159q0 -66 30.5 -88.5t65.5 -22.5q39 0 81 20.5t82 53.5t75.5 75t64.5 85 q-61 18 -88 52t-27 73q0 57 52.5 106t136.5 49q45 0 51 -59q72 90 161 146.5t175 56.5q43 0 72.5 -20.5t29.5 -76.5q0 -49 -31.5 -107t-89 -109.5t-134 -87t-167.5 -40.5q-2 2 -4 0l-4 -8q-16 -47 -16 -88q0 -33 9 -54.5t24.5 -32.5t34 -15t34.5 -4q37 0 86 16t112.5 59 t140.5 119t167 195q2 4 4 6q4 4 8 4t10.5 -7.5t6.5 -23.5q0 -10 -9.5 -31.5t-23.5 -41.5q-33 -49 -92.5 -113t-132 -121t-153.5 -97t-159 -40q-25 0 -57.5 5t-61 23.5t-49 55.5t-20.5 102v6q-66 -82 -153 -141t-193 -59q-25 0 -54.5 8t-54 28.5t-41 55.5t-16.5 86zM442 348 q0 -23 14.5 -43t47.5 -37q8 18 16 37t19 37q2 10 3 18.5t1 14.5q0 35 -31 35q-33 0 -51.5 -18.5t-18.5 -43.5zM631 254q0 -4 2 -6l2 -2q55 6 111.5 36.5t102.5 71.5t74.5 90.5t28.5 92.5q0 12 -9 21t-25 9q-39 0 -85.5 -36.5t-88.5 -87t-72.5 -103.5t-40.5 -86z" />
<glyph unicode="&#x178;" horiz-adv-x="1263" d="M-139 653q0 45 27.5 101.5t76.5 114t117 111.5t148.5 96t171 67.5t184.5 25.5q100 0 146 -46t46 -119q0 -80 -45 -164t-100 -165t-100.5 -157t-45.5 -141q0 -18 11.5 -38t52.5 -20q66 0 125 18.5t106 41.5q53 27 103 59q12 29 37.5 90.5t60.5 136t79 153.5t96 143.5 t112.5 105.5t126.5 41q35 0 51 -19.5t16 -48.5q0 -59 -49 -143t-120.5 -169t-150.5 -160.5t-138 -118.5q-12 -25 -21.5 -47.5t-22 -53.5t-32 -73t-49.5 -107q66 -6 122 -38t99 -79t67.5 -105.5t24.5 -115.5q0 -10 -6 -14t-12 -4q-10 0 -11 8q-14 37 -38.5 83t-62.5 87 t-92 70.5t-130 31.5q-92 -178 -205 -319q-49 -59 -106.5 -116.5t-124 -103t-139 -73t-150.5 -27.5q-70 0 -124 32t-54 112q0 61 35.5 127.5t96 130t142.5 122t173 101.5t188.5 68.5t189.5 25.5q29 53 43 88t35 84q-51 -29 -109 -51q-49 -20 -110.5 -35.5t-122.5 -15.5 q-78 0 -113 32.5t-35 83.5q0 43 23.5 96.5t58.5 112t76 120t76 119.5t58.5 110.5t23.5 93.5q0 33 -19.5 63.5t-73.5 30.5q-129 0 -240.5 -48t-193.5 -113.5t-129 -133.5t-47 -107q0 -31 25.5 -43t60.5 -12q23 0 53.5 5t69.5 19.5t84 42t94 72.5l4 5q4 4 11 4q16 0 16 -19 q0 -27 -33 -66.5t-86 -76.5t-119.5 -63.5t-132.5 -26.5q-74 0 -112.5 25.5t-38.5 84.5zM53 -387q0 -33 7.5 -51.5t18.5 -27.5t27.5 -11t34.5 -2q55 0 108.5 24.5t105 65.5t99.5 92t89 107q98 126 182 288q-106 0 -225 -42t-218.5 -109.5t-164 -154.5t-64.5 -179zM854 1229 q0 25 11.5 48t29.5 41.5t39.5 30t40.5 11.5q43 0 43 -47q0 -27 -12.5 -51.5t-31 -43t-39 -28.5t-36.5 -10q-23 0 -34 14t-11 35zM1059 584q0 -4 4 -4q6 0 32.5 24.5t61.5 62.5t74 86t71.5 94t54 85.5t21.5 62.5q0 8 -4 15.5t-16 7.5q-27 0 -59.5 -27.5t-64.5 -70.5 t-61.5 -94.5t-53 -99.5t-40 -86t-20.5 -54v-2zM1155 1229q0 25 11.5 48t29.5 41.5t39.5 30t40.5 11.5q43 0 43 -47q0 -27 -12.5 -51.5t-31 -43t-38.5 -28.5t-37 -10q-23 0 -34 14t-11 35z" />
<glyph unicode="&#x2c6;" horiz-adv-x="1024" d="M250 815q0 4 2 6q33 31 76 68q37 31 90 70.5t119 80.5q4 2 10 4q12 4 22 5q10 0 20.5 -4.5t18.5 -16.5q41 -59 61.5 -105t30.5 -79q11 -37 13 -66q-2 -2 -4 -6q-4 -8 -13 -8q-14 0 -37.5 20.5t-47 47t-43 55t-27.5 43.5q-35 -29 -78 -52.5t-83 -41t-69.5 -26.5t-38.5 -9 q-23 0 -22 14z" />
</font>
</defs>
</svg>
